<?xml version="1.0" standalone="no"?>
<!DOCTYPE svg PUBLIC "-//W3C//DTD SVG 1.1//EN" "http://www.w3.org/Graphics/SVG/1.1/DTD/svg11.dtd" >
<svg xmlns="http://www.w3.org/2000/svg" xmlns:xlink="http://www.w3.org/1999/xlink" version="1.1">
<metadata>
Created by FontForge 20150318 at Wed May 20 06:57:16 2015
 By uniteet7
(c) 2005 Microsoft Corporation. All Rights Reserved.
</metadata>
<defs>
<font id="Cambria-Bold" horiz-adv-x="895" >
  <font-face 
    font-family="Cambria"
    font-weight="700"
    font-stretch="normal"
    units-per-em="2048"
    panose-1="2 4 8 3 5 4 6 3 2 4"
    ascent="1593"
    descent="-455"
    x-height="992"
    cap-height="1365"
    bbox="-776 -448 2730 1946"
    underline-thickness="156"
    underline-position="-27"
    unicode-range="U+0020-FB04"
  />
<missing-glyph horiz-adv-x="1348" 
d="M567 487v22q0 22 3 40.5t14 39.5t32 47.5t57 65.5q23 25 42 48.5t32.5 49t21 54t7.5 63.5q0 75 -32.5 116t-94.5 41q-32 0 -56 -10t-42 -28t-30.5 -43t-21.5 -55h-96v130q60 30 128.5 53t135.5 23q70 0 119.5 -14.5t80.5 -40t45 -60.5t14 -76q0 -38 -7.5 -69t-25.5 -61.5
t-48 -65.5t-74 -80q-32 -33 -51 -55t-29.5 -41.5t-14 -39.5t-3.5 -48v-6h-106zM691 377v-161h-144v161h144zM1055 93v1178h-762v-1178h762zM1158 1364v-1364h-968v1364h968z" />
    <glyph glyph-name="uniFB00_b.liga" unicode="&#xfb00;b" horiz-adv-x="2547" 
d="M752 66q47 14 65.5 31t26.5 47.5t8 106.5v616h-379v-616q0 -75 8 -106t28.5 -49t72.5 -30v-66h-498v66q47 14 65.5 31t26.5 47.5t8 106.5v616h-122v69q47 7 65.5 15.5t30.5 23t19 37.5t10 59q16 180 133.5 272.5t332.5 92.5q86 0 153 -14v-204h-136q-17 55 -37.5 81
t-53.5 26q-43 0 -66 -28.5t-31.5 -81t-8.5 -147.5v-76h364q14 27 18 79q16 180 133.5 272.5t332.5 92.5q49 0 111 -9v-7l229 12h123v-573l1 -1q55 53 99.5 83t97.5 48.5t113 18.5q178 0 267 -125.5t89 -375.5q0 -173 -52.5 -289.5t-156.5 -175t-256 -58.5q-158 0 -289 57
l-74 -57l-128 18v1085q0 108 -4 151t-17 65.5t-42 34.5v-104h-112q-12 91 -77 91q-40 0 -62.5 -30.5t-31 -86t-8.5 -140.5v-76h193v-125h-193v-616q0 -75 8 -106t28.5 -49t72.5 -30v-66h-498v66zM1784 328q0 -123 42.5 -181.5t131.5 -58.5q92 0 140.5 96.5t48.5 275.5
q0 197 -43 294t-134 97q-46 0 -88.5 -21t-70 -65t-27.5 -104v-333z" />
    <glyph glyph-name="uniFB00_h.liga" unicode="&#xfb00;h" horiz-adv-x="2558" 
d="M752 66q47 14 65.5 31t26.5 47.5t8 106.5v616h-379v-616q0 -75 8 -106t28.5 -49t72.5 -30v-66h-498v66q47 14 65.5 31t26.5 47.5t8 106.5v616h-122v69q47 7 65.5 15.5t30.5 23t19 37.5t10 59q16 180 133.5 272.5t332.5 92.5q86 0 153 -14v-204h-136q-17 55 -37.5 81
t-53.5 26q-43 0 -66 -28.5t-31.5 -81t-8.5 -147.5v-76h364q14 27 18 79q16 180 133.5 272.5t332.5 92.5q49 0 111 -9v-7l239 12h125v-571l4 -1q91 81 162.5 114.5t146.5 33.5q110 0 170 -40.5t87.5 -116.5t27.5 -197v-365q0 -44 1.5 -82.5t7.5 -61.5t16.5 -37.5t29.5 -24.5
t46 -17v-66h-485v66q47 11 64.5 32t24 58t6.5 132v261q0 100 -6.5 155.5t-22 86t-40 45.5t-64.5 15q-38 0 -79.5 -23.5t-69 -64t-27.5 -86.5v-388q0 -56 1.5 -86.5t4.5 -47t8.5 -29.5t14.5 -24t26 -20t45 -16v-66h-490v66q30 7 47 16.5t26.5 22t16.5 32t9 54t2 98.5v780
q0 94 -2 138t-9 71t-21 41t-43 24v-109h-112q-12 91 -77 91q-40 0 -62.5 -30.5t-31 -86t-8.5 -140.5v-76h193v-125h-193v-616q0 -75 8 -106t28.5 -49t72.5 -30v-66h-498v66z" />
    <glyph glyph-name="uniFB03" unicode="f&#xfb01;" horiz-adv-x="1980" 
d="M752 66q47 14 65.5 31t26.5 47.5t8 106.5v616h-379v-616q0 -75 8 -106t28.5 -49t72.5 -30v-66h-498v66q47 14 65.5 31t26.5 47.5t8 106.5v616h-122v69q47 7 65.5 15.5t30.5 23t19 37.5t10 59q16 180 133.5 272.5t332.5 92.5q86 0 153 -14v-204h-136q-17 55 -37.5 81
t-53.5 26q-43 0 -66 -28.5t-31.5 -81t-8.5 -147.5v-76h364q14 27 18 79q16 180 133.5 272.5t332.5 92.5q49 0 111 -9v-193h-112q-12 91 -77 91q-40 0 -62.5 -30.5t-31 -86t-8.5 -140.5v-76h193v-125h-193v-616q0 -75 8 -106t28.5 -49t72.5 -30v-66h-498v66zM1801 1391v-245
h-274v245h274zM1421 66q49 13 67.5 34t25 57t6.5 131v465q0 49 -4.5 79t-17 48t-34 27.5t-55.5 16.5v68l275 8h125v-711q0 -56 1.5 -86.5t4.5 -47t8.5 -29.5t14.5 -24t26 -20t45 -16v-66h-488v66z" />
    <glyph glyph-name="uniFB00_j.liga" unicode="&#xfb00;j" horiz-adv-x="1955" 
d="M752 66q47 14 65.5 31t26.5 47.5t8 106.5v616h-379v-616q0 -75 8 -106t28.5 -49t72.5 -30v-66h-498v66q47 14 65.5 31t26.5 47.5t8 106.5v616h-122v69q47 7 65.5 15.5t30.5 23t19 37.5t10 59q16 180 133.5 272.5t332.5 92.5q86 0 153 -14v-204h-136q-17 55 -37.5 81
t-53.5 26q-43 0 -66 -28.5t-31.5 -81t-8.5 -147.5v-76h364q14 27 18 79q16 180 133.5 272.5t332.5 92.5q49 0 111 -9v-193h-112q-12 91 -77 91q-40 0 -62.5 -30.5t-31 -86t-8.5 -140.5v-76h193v-125h-193v-616q0 -75 8 -106t28.5 -49t72.5 -30v-66h-498v66zM1788 1391v-245
h-274v245h274zM1796 79q0 -118 -20.5 -199.5t-69 -143.5t-135.5 -108.5t-173 -70.5l-48 117q67 27 98 55t45 71.5t14 119.5v833q0 49 -4.5 79t-17 48t-34 27.5t-55.5 16.5v68l275 8h125v-921z" />
    <glyph glyph-name="uniFB00_k.liga" unicode="&#xfb00;k" horiz-adv-x="2548" 
d="M752 66q47 14 65.5 31t26.5 47.5t8 106.5v616h-379v-616q0 -75 8 -106t28.5 -49t72.5 -30v-66h-498v66q47 14 65.5 31t26.5 47.5t8 106.5v616h-122v69q47 7 65.5 15.5t30.5 23t19 37.5t10 59q16 180 133.5 272.5t332.5 92.5q86 0 153 -14v-204h-136q-17 55 -37.5 81
t-53.5 26q-43 0 -66 -28.5t-31.5 -81t-8.5 -147.5v-76h364q14 27 18 79q16 180 133.5 272.5t332.5 92.5q49 0 111 -9v-7l240 12h124v-843h36q31 0 50 6q22 7 45 25q32 23 79 67q35 33 57 63q19 27 28 52q8 21 8 45q0 69 -87 81v64h500v-64q-39 -6 -87 -36t-151 -126
l-145 -135l258 -382q57 -85 84 -117t47 -45.5t50 -20.5v-66h-499v66q24 4 38.5 16t14.5 36q0 16 -7 36t-21 44t-56 87l-77 116q-26 39 -42 56.5t-31.5 26.5t-43.5 9h-48v-204q0 -95 6 -131t24.5 -57.5t69.5 -34.5v-66h-490v66q30 7 47 16.5t26.5 22t16.5 32t9 54t2 98.5v780
q0 94 -2 138t-9 71t-21 41t-43 24v-109h-112q-12 91 -77 91q-40 0 -62.5 -30.5t-31 -86t-8.5 -140.5v-76h193v-125h-193v-616q0 -75 8 -106t28.5 -49t72.5 -30v-66h-498v66z" />
    <glyph glyph-name="uniFB04" unicode="f&#xfb02;" horiz-adv-x="1967" 
d="M752 66q47 14 65.5 31t26.5 47.5t8 106.5v616h-379v-616q0 -75 8 -106t28.5 -49t72.5 -30v-66h-498v66q47 14 65.5 31t26.5 47.5t8 106.5v616h-122v69q47 7 65.5 15.5t30.5 23t19 37.5t10 59q16 180 133.5 272.5t332.5 92.5q86 0 153 -14v-204h-136q-17 55 -37.5 81
t-53.5 26q-43 0 -66 -28.5t-31.5 -81t-8.5 -147.5v-76h364q14 27 18 79q16 180 133.5 272.5t332.5 92.5q49 0 111 -9v-7l239 12h125v-1143q0 -95 6 -131t24.5 -57.5t69.5 -34.5v-66h-490v66q30 7 47 16.5t26.5 22t16.5 32t9 54t2 98.5v820q0 84 -2.5 124.5t-9 61.5t-20 33
t-43.5 18v-112h-112q-12 91 -77 91q-40 0 -62.5 -30.5t-31 -86t-8.5 -140.5v-76h193v-125h-193v-616q0 -75 8 -106t28.5 -49t72.5 -30v-66h-498v66z" />
    <glyph glyph-name=".notdef" horiz-adv-x="1348" 
d="M567 487v22q0 22 3 40.5t14 39.5t32 47.5t57 65.5q23 25 42 48.5t32.5 49t21 54t7.5 63.5q0 75 -32.5 116t-94.5 41q-32 0 -56 -10t-42 -28t-30.5 -43t-21.5 -55h-96v130q60 30 128.5 53t135.5 23q70 0 119.5 -14.5t80.5 -40t45 -60.5t14 -76q0 -38 -7.5 -69t-25.5 -61.5
t-48 -65.5t-74 -80q-32 -33 -51 -55t-29.5 -41.5t-14 -39.5t-3.5 -48v-6h-106zM691 377v-161h-144v161h144zM1055 93v1178h-762v-1178h762zM1158 1364v-1364h-968v1364h968z" />
    <glyph glyph-name="glyph1" horiz-adv-x="0" 
 />
    <glyph glyph-name="glyph2" horiz-adv-x="451" 
 />
    <glyph glyph-name="space" unicode=" " horiz-adv-x="451" 
 />
    <glyph glyph-name="space" unicode="&#xa0;" horiz-adv-x="451" 
 />
    <glyph glyph-name="A" unicode="A" horiz-adv-x="1335" 
d="M807 423h-427l-33 -95q-14 -40 -23 -77.5t-9 -79.5q0 -98 104 -105v-66h-427v66q37 4 65 26t51 60t49 109l417 1111h267l330 -1120q22 -75 37 -106.5t39 -51t67 -28.5v-66h-552v66q52 6 77 29t25 65q0 31 -7 69t-23 96zM418 540h360l-160 563z" />
    <glyph glyph-name="B" unicode="B" horiz-adv-x="1334" 
d="M957 715q140 -44 213.5 -127.5t73.5 -200.5q0 -100 -33.5 -174t-102 -121.5t-161 -69.5t-235.5 -22h-616v66q37 10 58.5 21.5t32 32t13.5 52t3 79.5v862q0 47 -2.5 79t-13 52t-32 32.5t-59.5 22.5v66h655q112 0 183 -11q94 -15 163 -52q62 -33 97 -94t35 -145
q0 -226 -272 -339v-9zM646 767q100 0 157 29t86.5 82.5t29.5 147.5q0 83 -32 131.5t-91 69.5t-147 21q-70 0 -136 -5v-476h133zM513 120q59 -3 136 -3q95 0 156.5 23.5t95.5 82t34 160.5q0 72 -18 123.5t-54 83t-86 46t-125 14.5h-139v-530z" />
    <glyph glyph-name="C" unicode="C" horiz-adv-x="1174" 
d="M1089 1334v-290h-136q-24 113 -76 166.5t-136 53.5q-158 0 -239 -151.5t-81 -449.5q0 -277 74 -419.5t217 -142.5q73 0 119 24.5t73.5 73.5t47.5 138h137v-303q-110 -26 -201 -38t-189 -12q-208 0 -339.5 75t-194 226.5t-62.5 383.5q0 217 73.5 377.5t216.5 247.5t342 87
q101 0 183 -11t171 -36z" />
    <glyph glyph-name="D" unicode="D" horiz-adv-x="1443" 
d="M616 1365q167 0 279 -26t199 -82t140.5 -133.5t79.5 -180t26 -231.5q0 -156 -36.5 -280t-109.5 -212q-65 -79 -159.5 -130t-217.5 -72q-106 -18 -267 -18h-454v66q37 10 58.5 21.5t32 32t13.5 52t3 79.5v862q0 47 -2.5 79t-13 52t-32 32.5t-59.5 22.5v66h520zM513 121
q18 -3 91 -3q110 0 185 32q56 24 95 66q65 69 98 179q36 120 36 293q0 190 -51 315.5t-143.5 185t-221.5 59.5q-62 0 -89 -2v-1125z" />
    <glyph glyph-name="E" unicode="E" horiz-adv-x="1183" 
d="M1088 1365v-318h-137q-33 95 -56 128.5t-55 53t-109 19.5h-218v-480h132q44 0 69 12.5t41.5 41.5t31.5 90h113v-406h-113q-14 58 -31 88.5t-40.5 43.5t-70.5 13h-132v-534h217q35 0 59 4.5t43 15.5t36.5 30t31 41t28.5 58t33 99h137l-19 -365h-983v66q37 10 58.5 21.5
t32 32t13.5 52t3 79.5v862q0 47 -2.5 79t-13 52t-32 32.5t-59.5 22.5v66h992z" />
    <glyph glyph-name="F" unicode="F" horiz-adv-x="1129" 
d="M513 251q0 -53 3 -80.5t11 -44.5t19.5 -27.5t32 -19t55.5 -13.5v-66h-538v66q37 9 58.5 21t32 32.5t13.5 52.5t3 80v861q0 47 -2.5 79t-13 52t-32 32.5t-59.5 22.5v66h967v-318h-137q-33 95 -56 128.5t-55 53t-109 19.5h-193v-509h128q47 0 72.5 14.5t42 48.5t27.5 96
h113v-436h-113q-12 63 -29 97.5t-42 48.5t-71 14h-128v-371z" />
    <glyph glyph-name="G" unicode="G" horiz-adv-x="1324" 
d="M1145 1328v-284h-137q-23 84 -52.5 129.5t-76 68t-119.5 22.5q-99 0 -175 -60.5t-120 -193t-44 -335.5q0 -175 29.5 -303.5t90 -199.5t149.5 -71q88 0 130 52.5t42 167.5v38q0 76 -5 108.5t-15.5 48.5t-27.5 26t-60 23v66h512v-66q-50 -15 -68 -34t-24.5 -50.5
t-6.5 -88.5v-377l-144 -30l-68 72q-119 -73 -273 -73q-292 0 -435.5 170.5t-143.5 516.5q0 182 51 320t141.5 224.5t204 126t243.5 39.5q219 0 402 -53z" />
    <glyph glyph-name="H" unicode="H" horiz-adv-x="1478" 
d="M1275 251q0 -77 6.5 -105.5t26.5 -47.5t73 -32v-66h-522v66q58 15 75 30t24 42.5t7 112.5v401h-452v-401q0 -35 2 -65t8 -49t17.5 -32t31.5 -22.5t49 -16.5v-66h-525v66q37 10 58.5 21.5t32 32t13.5 52t3 79.5v862q0 47 -2.5 79t-13 52t-32 32.5t-59.5 22.5v66h525v-66
q-53 -15 -72.5 -33t-27.5 -47.5t-8 -106.5v-334h452v334q0 76 -6.5 105.5t-26 48t-73.5 33.5v66h522v-66q-44 -12 -64 -25.5t-28.5 -34.5t-11 -47t-2.5 -80v-861z" />
    <glyph glyph-name="I" unicode="I" horiz-adv-x="716" 
d="M513 251q0 -35 2 -65t8 -49t17.5 -32t31.5 -22.5t49 -16.5v-66h-525v66q37 10 58.5 21.5t32 32t13.5 52t3 79.5v863q0 48 -2.5 79t-13 51.5t-32 32.5t-59.5 22v66h525v-66q-41 -11 -60.5 -23.5t-29.5 -30.5t-14 -47t-4 -85v-862z" />
    <glyph glyph-name="J" unicode="J" horiz-adv-x="698" 
d="M504 111q0 -108 -16.5 -175t-55.5 -119q-46 -63 -123 -111q-91 -57 -224 -98l-50 123q61 27 90.5 51t43 51.5t19.5 69t6 120.5v1090q0 47 -2.5 79t-13 52t-32 32.5t-59.5 22.5v66h525v-66q-42 -11 -61.5 -24t-29 -31t-13.5 -46t-4 -85v-1002z" />
    <glyph glyph-name="K" unicode="K" horiz-adv-x="1396" 
d="M1208 266q39 -60 65.5 -95.5t46.5 -55.5t39.5 -30.5t51.5 -19.5v-65h-542v66q34 5 46 16.5t12 30.5q0 16 -4.5 31.5t-21.5 45.5t-69 110l-153 236q-28 43 -48.5 67t-41 34.5t-56.5 10.5h-20v-397q0 -35 2 -65t8 -49t17.5 -32t31.5 -22.5t49 -16.5v-66h-525v66
q37 10 58.5 21.5t32 32t13.5 52t3 79.5v862q0 47 -2.5 79t-13 52t-32 32.5t-59.5 22.5v66h525v-66q-42 -11 -61.5 -24t-29 -31t-13.5 -46t-4 -85v-356h21q46 0 73 10t55.5 36t110 121.5t118 147t50 85t13.5 66.5q0 35 -23.5 55t-66.5 21v66h511v-68q-38 -7 -65 -21
t-62 -45.5t-89 -92.5l-300 -336z" />
    <glyph glyph-name="L" unicode="L" horiz-adv-x="1128" 
d="M621 1365v-66q-36 -10 -57 -21.5t-32.5 -31.5t-15 -51.5t-3.5 -79.5v-996h194q58 0 93 18t60.5 55.5t44 98t29.5 113.5h137l-22 -404h-953v66q37 10 58.5 22t32 32.5t13.5 52t3 79.5v861q0 47 -2.5 79t-13 52t-32 32.5t-59.5 22.5v66h525z" />
    <glyph glyph-name="M" unicode="M" horiz-adv-x="1733" 
d="M1636 1299q-53 -15 -72 -32.5t-26.5 -47t-7.5 -104.5v-865q0 -61 6 -96.5t24.5 -54t75.5 -33.5v-66h-513v66q44 12 61 21t26.5 23.5t14 44t4.5 97.5v490q0 81 3 191t6 156h-21q-12 -40 -25.5 -78.5t-50.5 -137.5l-268 -722h-176l-282 811q-25 69 -44 137h-18
q10 -165 10 -390v-460q0 -74 7 -103t28 -48t73 -32v-66h-378v66q37 10 58.5 22t32.5 32t13.5 51t2.5 79v865q0 76 -6.5 104t-25.5 46t-75 34v66h497l277 -821l300 821h469v-66z" />
    <glyph glyph-name="N" unicode="N" horiz-adv-x="1391" 
d="M1308 1365v-66q-40 -13 -56.5 -22t-28 -24t-17.5 -45.5t-6 -93.5v-1114h-254l-450 778q-91 158 -134 248h-9q10 -215 10 -454v-322q0 -75 7.5 -105t27 -47.5t73.5 -31.5v-66h-378v66q37 10 58.5 22t32 32.5t13.5 51.5t3 78v865q0 75 -6.5 103.5t-27 47.5t-73.5 33v66h405
l354 -615q33 -58 86 -157t94 -187h16q-11 239 -11 522v186q0 65 -5 94t-15.5 44t-28 25t-58.5 22v66h378z" />
    <glyph glyph-name="O" unicode="O" horiz-adv-x="1424" 
d="M695 -16q-294 0 -441.5 172t-147.5 515q0 225 71.5 384.5t210.5 242.5t331 83q299 0 449 -171.5t150 -509.5q0 -189 -44.5 -324.5t-126.5 -222.5t-196.5 -128t-255.5 -41zM424 698q0 -302 72.5 -449.5t221.5 -147.5q77 0 131 41.5t87.5 116t48 176.5t14.5 224
q0 199 -31.5 333.5t-95 203t-162.5 68.5q-145 0 -215.5 -138.5t-70.5 -427.5z" />
    <glyph glyph-name="P" unicode="P" horiz-adv-x="1257" 
d="M513 250q0 -66 5 -93.5t16.5 -44t33 -27.5t66.5 -19v-66h-538v66q37 10 58.5 21.5t32 32t13.5 52t3 79.5v862q0 47 -2.5 79t-13 52t-32 32.5t-59.5 22.5v66h581q253 0 379 -90.5t126 -278.5q0 -133 -59 -231t-171 -148.5t-280 -50.5q-97 0 -159 4v-320zM513 683h86
q100 0 159 28.5t87.5 90.5t28.5 167q0 104 -28.5 165.5t-83.5 87.5t-141 26q-70 0 -108 -2v-563z" />
    <glyph glyph-name="Q" unicode="Q" horiz-adv-x="1424" 
d="M923 15l62 -85q24 -33 45 -57.5t45 -42.5t46 -25.5t48 -7.5q31 0 53 5.5t46 19.5t56 41l70 -87q-67 -63 -119 -97t-100 -48t-112 -14q-70 0 -125.5 16t-108 57t-99.5 114l-119 184q-162 17 -273 92.5t-171.5 222t-60.5 368.5q0 225 71.5 384.5t210.5 242.5t331 83
q299 0 449 -171.5t150 -509.5q0 -275 -99 -448.5t-296 -236.5zM424 698q0 -302 72.5 -449.5t221.5 -147.5q77 0 131 41.5t87.5 116t48 176.5t14.5 224q0 199 -31.5 333.5t-95 203t-162.5 68.5q-145 0 -215.5 -138.5t-70.5 -427.5z" />
    <glyph glyph-name="R" unicode="R" horiz-adv-x="1355" 
d="M621 0h-525v66q37 10 58.5 21.5t32 32t13.5 52t3 79.5v862q0 47 -2.5 79t-13 52t-32 32.5t-59.5 22.5v66h583q118 0 200.5 -16.5t144.5 -50.5q52 -28 88 -70.5t55.5 -99t19.5 -131.5q0 -98 -34.5 -168t-93 -116.5t-156.5 -87.5v-10q74 -32 122.5 -85.5t87.5 -135.5
l63 -136q42 -91 83.5 -136.5t98.5 -55.5v-66h-385q-58 80 -131 238l-78 171q-35 76 -60 108t-51.5 44t-81.5 12h-58v-322q0 -75 7 -105t27 -48t74 -32v-66zM513 1246v-556h99q80 0 132 21.5t82.5 60t42 90.5t11.5 114q0 136 -64 204t-190 68q-86 0 -113 -2z" />
    <glyph glyph-name="S" unicode="S" horiz-adv-x="1051" 
d="M221 337q25 -119 83.5 -177.5t171.5 -58.5q59 0 106 20t75.5 64.5t28.5 111.5q0 62 -23 107.5t-74 86.5t-142 87q-78 39 -141 81t-107.5 92.5t-69 110.5t-24.5 135q0 123 61 209t176.5 130.5t267.5 44.5q89 0 170 -9.5t185 -33.5v-290h-137q-19 79 -48.5 125.5
t-73.5 68.5t-111 22q-57 0 -102 -20t-71 -59.5t-26 -95.5q0 -58 22.5 -100.5t75.5 -83t154 -92.5q123 -64 193.5 -125.5t104 -134t33.5 -168.5q0 -123 -57 -213.5t-166 -139t-252 -48.5q-102 0 -212.5 11.5t-207.5 33.5v308h137z" />
    <glyph glyph-name="T" unicode="T" horiz-adv-x="1309" 
d="M379 0v66q42 7 66.5 18.5t36.5 32.5t15 53.5t3 80.5v997h-81q-60 0 -92 -14t-55.5 -44t-40.5 -80.5t-28 -95.5h-137v351h1177v-351h-137q-19 68 -30 100t-24.5 54.5t-28.5 37.5t-32 24t-42.5 13.5t-66.5 4.5h-72v-997q0 -53 3 -80.5t11 -44.5t19.5 -27.5t32 -19
t55.5 -13.5v-66h-552z" />
    <glyph glyph-name="U" unicode="U" horiz-adv-x="1385" 
d="M977 1114q0 75 -6.5 104.5t-25.5 47.5t-74 33v66h440v-66q-36 -10 -57 -21.5t-32 -32t-14 -52t-3 -79.5v-625q0 -124 -20 -207.5t-62 -140.5t-104.5 -92t-140.5 -50t-175 -15q-142 0 -240 29.5t-159.5 89t-91 144.5t-29.5 219v647q0 47 -2.5 79t-13 52t-32 32.5
t-59.5 22.5v66h525v-66q-41 -11 -60.5 -23.5t-29.5 -30.5t-14 -47t-4 -85v-660q0 -79 10 -144t36.5 -111.5t73.5 -71.5t121 -25q102 0 152 41t70.5 114.5t20.5 219.5v638z" />
    <glyph glyph-name="V" unicode="V" horiz-adv-x="1299" 
d="M948 1037q15 42 23.5 79t8.5 78q0 49 -25.5 75t-78.5 30v66h431v-66q-38 -6 -64.5 -24.5t-48 -53t-50.5 -112.5l-419 -1116h-231l-330 1120q-22 75 -37 106.5t-39 51t-67 28.5v66h553v-66q-52 -6 -77 -29t-25 -65q0 -33 6 -64.5t25 -100.5l198 -718z" />
    <glyph glyph-name="W" unicode="W" horiz-adv-x="1969" 
d="M1623 1022q14 46 24 92.5t10 79.5q0 52 -25.5 76.5t-76.5 28.5v66h417v-66q-37 -8 -62 -28.5t-45 -57.5t-50 -124l-375 -1096h-238l-226 939l-268 -939h-250l-301 1120q-22 82 -39 114t-38 48t-53 24v66h538v-66q-52 -6 -77 -29t-25 -65q0 -53 29 -165l173 -695l287 1020
h226l234 -1020z" />
    <glyph glyph-name="X" unicode="X" horiz-adv-x="1267" 
d="M604 1365v-66q-47 -5 -66.5 -21.5t-19.5 -50.5q0 -17 7 -38.5t23 -51.5t54 -94l93 -155l121 178q40 59 53.5 90.5t13.5 67.5q0 32 -22 51.5t-61 23.5v66h413v-67q-29 -8 -55 -25.5t-60 -58t-109 -147.5l-216 -308l326 -538q17 -27 34.5 -53.5t34 -47t29 -30.5t24.5 -15.5
t25 -8.5v-66h-556v66q44 5 65 21t21 51q0 12 -3.5 26t-12 34t-17 35.5t-34.5 59.5l-139 229l-163 -241q-19 -29 -32 -53t-18 -44t-5 -47t21.5 -47t61.5 -24v-66h-414v66q33 10 60.5 30.5t60 59.5t89.5 121l261 374l-252 419q-41 68 -70.5 113t-49.5 68.5t-35.5 33.5
t-36.5 14v66h556z" />
    <glyph glyph-name="Y" unicode="Y" horiz-adv-x="1238" 
d="M762 525v-274q0 -53 3 -80.5t11 -44.5t19.5 -27.5t32 -19t55.5 -13.5v-66h-552v66q41 7 65.5 18t36.5 32t15.5 53.5t3.5 81.5v274l-271 572q-35 73 -55 108q-23 41 -39.5 59t-30.5 25t-39 10v66h533v-66q-77 -10 -77 -76q0 -26 12.5 -62t40.5 -96l169 -376l183 367
q27 55 37.5 91.5t10.5 72.5t-20.5 56.5t-57.5 22.5v66h401v-66q-27 -6 -44.5 -16.5t-38.5 -33t-50 -67.5t-67 -117z" />
    <glyph glyph-name="Z" unicode="Z" horiz-adv-x="1160" 
d="M448 119h286q55 0 92 22.5t64 71t56 168.5h136v-381h-1002v66l640 1180h-271q-66 0 -104 -24t-65 -77t-47 -141h-137v361h992v-66z" />
    <glyph glyph-name="Agrave" unicode="&#xc0;" horiz-adv-x="1335" 
d="M807 423h-427l-33 -95q-14 -40 -23 -77.5t-9 -79.5q0 -98 104 -105v-66h-427v66q37 4 65 26t51 60t49 109l417 1111h267l330 -1120q22 -75 37 -106.5t39 -51t67 -28.5v-66h-552v66q52 6 77 29t25 65q0 31 -7 69t-23 96zM418 540h360l-160 563zM651 1798l230 -260l-65 -70
l-407 264v66h242z" />
    <glyph glyph-name="Aacute" unicode="&#xc1;" horiz-adv-x="1335" 
d="M807 423h-427l-33 -95q-14 -40 -23 -77.5t-9 -79.5q0 -98 104 -105v-66h-427v66q37 4 65 26t51 60t49 109l417 1111h267l330 -1120q22 -75 37 -106.5t39 -51t67 -28.5v-66h-552v66q52 6 77 29t25 65q0 31 -7 69t-23 96zM418 540h360l-160 563zM1005 1798v-66l-406 -264
l-65 70l244 260h227z" />
    <glyph glyph-name="Acircumflex" unicode="&#xc2;" horiz-adv-x="1335" 
d="M807 423h-427l-33 -95q-14 -40 -23 -77.5t-9 -79.5q0 -98 104 -105v-66h-427v66q37 4 65 26t51 60t49 109l417 1111h267l330 -1120q22 -75 37 -106.5t39 -51t67 -28.5v-66h-552v66q52 6 77 29t25 65q0 31 -7 69t-23 96zM418 540h360l-160 563zM796 1785l226 -251l-71 -67
l-238 167h-11l-240 -167l-69 67l229 251h174z" />
    <glyph glyph-name="Atilde" unicode="&#xc3;" horiz-adv-x="1335" 
d="M807 423h-427l-33 -95q-14 -40 -23 -77.5t-9 -79.5q0 -98 104 -105v-66h-427v66q37 4 65 26t51 60t49 109l417 1111h267l330 -1120q22 -75 37 -106.5t39 -51t67 -28.5v-66h-552v66q52 6 77 29t25 65q0 31 -7 69t-23 96zM418 540h360l-160 563zM965 1747l94 -41
q-57 -118 -110 -174.5t-109 -56.5q-37 0 -67.5 10.5t-87.5 49.5q-32 22 -49 31.5t-33.5 14.5t-33.5 5q-23 0 -40.5 -8.5t-38 -33t-43.5 -69.5l-93 41q47 91 78.5 136t66.5 70t78 25q24 0 45.5 -5t41.5 -15.5t57 -35.5t54.5 -35t34 -15t38.5 -5q35 0 61.5 26.5t55.5 84.5z
" />
    <glyph glyph-name="Adieresis" unicode="&#xc4;" horiz-adv-x="1335" 
d="M807 423h-427l-33 -95q-14 -40 -23 -77.5t-9 -79.5q0 -98 104 -105v-66h-427v66q37 4 65 26t51 60t49 109l417 1111h267l330 -1120q22 -75 37 -106.5t39 -51t67 -28.5v-66h-552v66q52 6 77 29t25 65q0 31 -7 69t-23 96zM418 540h360l-160 563zM619 1721v-220h-209v220
h209zM1005 1721v-220h-209v220h209z" />
    <glyph glyph-name="Amacron" unicode="&#x100;" horiz-adv-x="1335" 
d="M807 423h-427l-33 -95q-14 -40 -23 -77.5t-9 -79.5q0 -98 104 -105v-66h-427v66q37 4 65 26t51 60t49 109l417 1111h267l330 -1120q22 -75 37 -106.5t39 -51t67 -28.5v-66h-552v66q52 6 77 29t25 65q0 31 -7 69t-23 96zM418 540h360l-160 563zM1004 1530h-594v154h594
v-154z" />
    <glyph glyph-name="Abreve" unicode="&#x102;" horiz-adv-x="1335" 
d="M807 423h-427l-33 -95q-14 -40 -23 -77.5t-9 -79.5q0 -98 104 -105v-66h-427v66q37 4 65 26t51 60t49 109l417 1111h267l330 -1120q22 -75 37 -106.5t39 -51t67 -28.5v-66h-552v66q52 6 77 29t25 65q0 31 -7 69t-23 96zM418 540h360l-160 563zM1034 1761
q-35 -139 -116 -210t-219 -71q-126 0 -207.5 72t-111.5 209l97 30q34 -77 86 -114t140 -37q94 0 148.5 38t85.5 113z" />
    <glyph glyph-name="Aring" unicode="&#xc5;" horiz-adv-x="1335" 
d="M807 423h-427l-33 -95q-14 -40 -23 -77.5t-9 -79.5q0 -98 104 -105v-66h-427v66q37 4 65 26t51 60t49 109l417 1111h267l330 -1120q22 -75 37 -106.5t39 -51t67 -28.5v-66h-552v66q52 6 77 29t25 65q0 31 -7 69t-23 96zM418 540h360l-160 563zM701 1415q-113 0 -172 53
t-59 154q0 70 31.5 118.5t87 72t125.5 23.5q113 0 171 -52.5t58 -152.5q0 -105 -63.5 -160.5t-178.5 -55.5zM590 1629q0 -65 30 -101t89 -36q55 0 84.5 33.5t29.5 94.5q0 67 -31 103t-85 36q-58 0 -87.5 -34t-29.5 -96z" />
    <glyph glyph-name="Aringacute" unicode="&#x1fa;" horiz-adv-x="1335" 
d="M989 1946v-66l-412 -212l-59 75l244 203h227zM864 1294l307 -1042q22 -75 37 -106.5t39 -51t67 -28.5v-66h-552v66q52 6 77 29t25 65q0 31 -7 69t-23 96l-27 98h-427l-33 -95q-14 -40 -23 -77.5t-9 -79.5q0 -98 104 -105v-66h-427v66q37 4 65 26t51 60t49 109l385 1026
q-75 54 -75 168q0 70 31.5 118.5t87 72t125.5 23.5q113 0 171 -52.5t58 -152.5q0 -115 -76 -170zM587 1462q0 -65 30 -101t89 -36q55 0 84.5 33.5t29.5 94.5q0 67 -31 103t-85 36q-58 0 -87.5 -34t-29.5 -96zM418 540h360l-160 563z" />
    <glyph glyph-name="Aogonek" unicode="&#x104;" horiz-adv-x="1335" 
d="M807 423h-427l-33 -95q-14 -40 -23 -77.5t-9 -79.5q0 -98 104 -105v-66h-427v66q37 4 65 26t51 60t49 109l417 1111h267l330 -1120q22 -75 37 -106.5t39 -51t67 -28.5v-66h-148q-58 -54 -87.5 -112t-29.5 -111q0 -49 23.5 -74t64.5 -25q30 0 52.5 10t40.5 22l38 -86
q-36 -25 -82 -42.5t-98 -17.5q-40 0 -77.5 9.5t-66.5 30t-46.5 55.5t-17.5 85q0 69 43.5 135.5t126.5 120.5h-288v66q52 6 77 29t25 65q0 31 -7 69t-23 96zM418 540h360l-160 563z" />
    <glyph glyph-name="AE" unicode="&#xc6;" horiz-adv-x="1803" 
d="M1708 1365v-318h-137q-33 95 -56 128.5t-55 53t-109 19.5h-249l29 -480h134q44 0 69 12.5t41.5 41.5t31.5 90h113v-406h-113q-14 58 -31 88.5t-40.5 43.5t-70.5 13h-126l36 -534h175q35 0 59 4.5t43 15.5t36.5 30t31 41t28.5 58t33 99h137l-19 -365h-948v66
q46 9 67.5 25.5t31.5 46t10 81.5q0 10 -0.5 22t-1.5 24l-10 158h-406l-47 -93q-30 -60 -43.5 -95.5t-13.5 -66.5q0 -49 25 -74t74 -28v-66h-451v66q56 12 101 62t89 133l577 1104h955zM501 540h339l-18 287q-7 116 -10 313h-12z" />
    <glyph glyph-name="AEacute" unicode="&#x1fc;" horiz-adv-x="1803" 
d="M1708 1365v-318h-137q-33 95 -56 128.5t-55 53t-109 19.5h-249l29 -480h134q44 0 69 12.5t41.5 41.5t31.5 90h113v-406h-113q-14 58 -31 88.5t-40.5 43.5t-70.5 13h-126l36 -534h175q35 0 59 4.5t43 15.5t36.5 30t31 41t28.5 58t33 99h137l-19 -365h-948v66
q46 9 67.5 25.5t31.5 46t10 81.5q0 10 -0.5 22t-1.5 24l-10 158h-406l-47 -93q-30 -60 -43.5 -95.5t-13.5 -66.5q0 -49 25 -74t74 -28v-66h-451v66q56 12 101 62t89 133l577 1104h955zM501 540h339l-18 287q-7 116 -10 313h-12zM1456 1798v-66l-406 -264l-65 70l244 260h227
z" />
    <glyph glyph-name="Cacute" unicode="&#x106;" horiz-adv-x="1174" 
d="M1089 1334v-290h-136q-24 113 -76 166.5t-136 53.5q-158 0 -239 -151.5t-81 -449.5q0 -277 74 -419.5t217 -142.5q73 0 119 24.5t73.5 73.5t47.5 138h137v-303q-110 -26 -201 -38t-189 -12q-208 0 -339.5 75t-194 226.5t-62.5 383.5q0 217 73.5 377.5t216.5 247.5t342 87
q101 0 183 -11t171 -36zM960 1798v-66l-406 -264l-65 70l244 260h227z" />
    <glyph glyph-name="Ccircumflex" unicode="&#x108;" horiz-adv-x="1174" 
d="M1089 1334v-290h-136q-24 113 -76 166.5t-136 53.5q-158 0 -239 -151.5t-81 -449.5q0 -277 74 -419.5t217 -142.5q73 0 119 24.5t73.5 73.5t47.5 138h137v-303q-110 -26 -201 -38t-189 -12q-208 0 -339.5 75t-194 226.5t-62.5 383.5q0 217 73.5 377.5t216.5 247.5t342 87
q101 0 183 -11t171 -36zM752 1785l226 -251l-71 -67l-238 167h-11l-240 -167l-69 67l229 251h174z" />
    <glyph glyph-name="Ccaron" unicode="&#x10c;" horiz-adv-x="1174" 
d="M1089 1334v-290h-136q-24 113 -76 166.5t-136 53.5q-158 0 -239 -151.5t-81 -449.5q0 -277 74 -419.5t217 -142.5q73 0 119 24.5t73.5 73.5t47.5 138h137v-303q-110 -26 -201 -38t-189 -12q-208 0 -339.5 75t-194 226.5t-62.5 383.5q0 217 73.5 377.5t216.5 247.5t342 87
q101 0 183 -11t171 -36zM575 1474l-226 251l71 67l238 -167h11l240 167l69 -67l-229 -251h-174z" />
    <glyph glyph-name="Cdotaccent" unicode="&#x10a;" horiz-adv-x="1174" 
d="M1089 1334v-290h-136q-24 113 -76 166.5t-136 53.5q-158 0 -239 -151.5t-81 -449.5q0 -277 74 -419.5t217 -142.5q73 0 119 24.5t73.5 73.5t47.5 138h137v-303q-110 -26 -201 -38t-189 -12q-208 0 -339.5 75t-194 226.5t-62.5 383.5q0 217 73.5 377.5t216.5 247.5t342 87
q101 0 183 -11t171 -36zM800 1734v-245h-274v245h274z" />
    <glyph glyph-name="Ccedilla" unicode="&#xc7;" horiz-adv-x="1174" 
d="M1089 1334v-290h-136q-24 113 -76 166.5t-136 53.5q-158 0 -239 -151.5t-81 -449.5q0 -277 74 -419.5t217 -142.5q73 0 119 24.5t73.5 73.5t47.5 138h137v-303q-166 -40 -294 -47l-79 -55q17 -23 25.5 -56.5t8.5 -72.5q0 -102 -91.5 -163.5t-257.5 -69.5l-16 95
q82 12 119.5 40t37.5 87q0 37 -5 63v43l130 87q-290 6 -427 174.5t-137 509.5q0 217 73.5 377.5t216.5 247.5t342 87q101 0 183 -11t171 -36z" />
    <glyph glyph-name="Dcaron" unicode="&#x10e;" horiz-adv-x="1443" 
d="M616 1365q167 0 279 -26t199 -82t140.5 -133.5t79.5 -180t26 -231.5q0 -156 -36.5 -280t-109.5 -212q-65 -79 -159.5 -130t-217.5 -72q-106 -18 -267 -18h-454v66q37 10 58.5 21.5t32 32t13.5 52t3 79.5v862q0 47 -2.5 79t-13 52t-32 32.5t-59.5 22.5v66h520zM513 121
q18 -3 91 -3q110 0 185 32q56 24 95 66q65 69 98 179q36 120 36 293q0 190 -51 315.5t-143.5 185t-221.5 59.5q-62 0 -89 -2v-1125zM633 1474l-226 251l71 67l238 -167h11l240 167l69 -67l-229 -251h-174z" />
    <glyph glyph-name="Dcroat" unicode="&#x110;" horiz-adv-x="1452" 
d="M625 1365q167 0 279 -26t199 -82t140.5 -133.5t79.5 -180t26 -231.5q0 -156 -36.5 -280t-109.5 -212q-65 -79 -159.5 -130t-217.5 -72q-106 -18 -267 -18h-454v66q37 10 58.5 21.5t32 32t13.5 52t3 79.5v401h-171v126h171v335q0 47 -2.5 79t-13 52t-32 32.5t-59.5 22.5
v66h520zM784 652h-262v-531q18 -3 91 -3q75 0 132 15q53 13 97 41q40 26 73 67q36 46 60 105q26 64 39 148t13 194q0 190 -51 315.5t-143.5 185t-221.5 59.5q-62 0 -89 -2v-468h262v-126z" />
    <glyph glyph-name="Egrave" unicode="&#xc8;" horiz-adv-x="1183" 
d="M1088 1365v-318h-137q-33 95 -56 128.5t-55 53t-109 19.5h-218v-480h132q44 0 69 12.5t41.5 41.5t31.5 90h113v-406h-113q-14 58 -31 88.5t-40.5 43.5t-70.5 13h-132v-534h217q35 0 59 4.5t43 15.5t36.5 30t31 41t28.5 58t33 99h137l-19 -365h-983v66q37 10 58.5 21.5
t32 32t13.5 52t3 79.5v862q0 47 -2.5 79t-13 52t-32 32.5t-59.5 22.5v66h992zM546 1798l230 -260l-65 -70l-407 264v66h242z" />
    <glyph glyph-name="Eacute" unicode="&#xc9;" horiz-adv-x="1183" 
d="M1088 1365v-318h-137q-33 95 -56 128.5t-55 53t-109 19.5h-218v-480h132q44 0 69 12.5t41.5 41.5t31.5 90h113v-406h-113q-14 58 -31 88.5t-40.5 43.5t-70.5 13h-132v-534h217q35 0 59 4.5t43 15.5t36.5 30t31 41t28.5 58t33 99h137l-19 -365h-983v66q37 10 58.5 21.5
t32 32t13.5 52t3 79.5v862q0 47 -2.5 79t-13 52t-32 32.5t-59.5 22.5v66h992zM896 1798v-66l-406 -264l-65 70l244 260h227z" />
    <glyph glyph-name="Ecircumflex" unicode="&#xca;" horiz-adv-x="1183" 
d="M1088 1365v-318h-137q-33 95 -56 128.5t-55 53t-109 19.5h-218v-480h132q44 0 69 12.5t41.5 41.5t31.5 90h113v-406h-113q-14 58 -31 88.5t-40.5 43.5t-70.5 13h-132v-534h217q35 0 59 4.5t43 15.5t36.5 30t31 41t28.5 58t33 99h137l-19 -365h-983v66q37 10 58.5 21.5
t32 32t13.5 52t3 79.5v862q0 47 -2.5 79t-13 52t-32 32.5t-59.5 22.5v66h992zM688 1785l226 -251l-71 -67l-238 167h-11l-240 -167l-69 67l229 251h174z" />
    <glyph glyph-name="Ecaron" unicode="&#x11a;" horiz-adv-x="1183" 
d="M1088 1365v-318h-137q-33 95 -56 128.5t-55 53t-109 19.5h-218v-480h132q44 0 69 12.5t41.5 41.5t31.5 90h113v-406h-113q-14 58 -31 88.5t-40.5 43.5t-70.5 13h-132v-534h217q35 0 59 4.5t43 15.5t36.5 30t31 41t28.5 58t33 99h137l-19 -365h-983v66q37 10 58.5 21.5
t32 32t13.5 52t3 79.5v862q0 47 -2.5 79t-13 52t-32 32.5t-59.5 22.5v66h992zM511 1474l-226 251l71 67l238 -167h11l240 167l69 -67l-229 -251h-174z" />
    <glyph glyph-name="Edieresis" unicode="&#xcb;" horiz-adv-x="1183" 
d="M1088 1365v-318h-137q-33 95 -56 128.5t-55 53t-109 19.5h-218v-480h132q44 0 69 12.5t41.5 41.5t31.5 90h113v-406h-113q-14 58 -31 88.5t-40.5 43.5t-70.5 13h-132v-534h217q35 0 59 4.5t43 15.5t36.5 30t31 41t28.5 58t33 99h137l-19 -365h-983v66q37 10 58.5 21.5
t32 32t13.5 52t3 79.5v862q0 47 -2.5 79t-13 52t-32 32.5t-59.5 22.5v66h992zM511 1721v-220h-209v220h209zM897 1721v-220h-209v220h209z" />
    <glyph glyph-name="Emacron" unicode="&#x112;" horiz-adv-x="1183" 
d="M1088 1365v-318h-137q-33 95 -56 128.5t-55 53t-109 19.5h-218v-480h132q44 0 69 12.5t41.5 41.5t31.5 90h113v-406h-113q-14 58 -31 88.5t-40.5 43.5t-70.5 13h-132v-534h217q35 0 59 4.5t43 15.5t36.5 30t31 41t28.5 58t33 99h137l-19 -365h-983v66q37 10 58.5 21.5
t32 32t13.5 52t3 79.5v862q0 47 -2.5 79t-13 52t-32 32.5t-59.5 22.5v66h992zM896 1530h-594v154h594v-154z" />
    <glyph glyph-name="Ebreve" unicode="&#x114;" horiz-adv-x="1183" 
d="M1088 1365v-318h-137q-33 95 -56 128.5t-55 53t-109 19.5h-218v-480h132q44 0 69 12.5t41.5 41.5t31.5 90h113v-406h-113q-14 58 -31 88.5t-40.5 43.5t-70.5 13h-132v-534h217q35 0 59 4.5t43 15.5t36.5 30t31 41t28.5 58t33 99h137l-19 -365h-983v66q37 10 58.5 21.5
t32 32t13.5 52t3 79.5v862q0 47 -2.5 79t-13 52t-32 32.5t-59.5 22.5v66h992zM926 1761q-35 -139 -116 -210t-219 -71q-126 0 -207.5 72t-111.5 209l97 30q34 -77 86 -114t140 -37q94 0 148.5 38t85.5 113z" />
    <glyph glyph-name="Edotaccent" unicode="&#x116;" horiz-adv-x="1183" 
d="M1088 1365v-318h-137q-33 95 -56 128.5t-55 53t-109 19.5h-218v-480h132q44 0 69 12.5t41.5 41.5t31.5 90h113v-406h-113q-14 58 -31 88.5t-40.5 43.5t-70.5 13h-132v-534h217q35 0 59 4.5t43 15.5t36.5 30t31 41t28.5 58t33 99h137l-19 -365h-983v66q37 10 58.5 21.5
t32 32t13.5 52t3 79.5v862q0 47 -2.5 79t-13 52t-32 32.5t-59.5 22.5v66h992zM736 1734v-245h-274v245h274z" />
    <glyph glyph-name="Eogonek" unicode="&#x118;" horiz-adv-x="1183" 
d="M1088 1365v-318h-137q-33 95 -56 128.5t-55 53t-109 19.5h-218v-480h132q44 0 69 12.5t41.5 41.5t31.5 90h113v-406h-113q-14 58 -31 88.5t-40.5 43.5t-70.5 13h-132v-534h217q35 0 59 4.5t43 15.5t36.5 30t31 41t28.5 58t33 99h137l-19 -365h-82q-58 -54 -87.5 -112
t-29.5 -111q0 -49 23.5 -74t64.5 -25q30 0 52.5 10t40.5 22l38 -86q-36 -25 -82 -42.5t-98 -17.5q-40 0 -77.5 9.5t-66.5 30t-46.5 55.5t-17.5 85q0 69 43.5 135.5t126.5 120.5h-785v66q37 10 58.5 21.5t32 32t13.5 52t3 79.5v862q0 47 -2.5 79t-13 52t-32 32.5t-59.5 22.5
v66h992z" />
    <glyph glyph-name="Gcircumflex" unicode="&#x11c;" horiz-adv-x="1324" 
d="M1145 1328v-284h-137q-23 84 -52.5 129.5t-76 68t-119.5 22.5q-99 0 -175 -60.5t-120 -193t-44 -335.5q0 -175 29.5 -303.5t90 -199.5t149.5 -71q88 0 130 52.5t42 167.5v38q0 76 -5 108.5t-15.5 48.5t-27.5 26t-60 23v66h512v-66q-50 -15 -68 -34t-24.5 -50.5
t-6.5 -88.5v-377l-144 -30l-68 72q-119 -73 -273 -73q-292 0 -435.5 170.5t-143.5 516.5q0 182 51 320t141.5 224.5t204 126t243.5 39.5q219 0 402 -53zM771 1785l226 -251l-71 -67l-238 167h-11l-240 -167l-69 67l229 251h174z" />
    <glyph glyph-name="Gbreve" unicode="&#x11e;" horiz-adv-x="1324" 
d="M1145 1328v-284h-137q-23 84 -52.5 129.5t-76 68t-119.5 22.5q-99 0 -175 -60.5t-120 -193t-44 -335.5q0 -175 29.5 -303.5t90 -199.5t149.5 -71q88 0 130 52.5t42 167.5v38q0 76 -5 108.5t-15.5 48.5t-27.5 26t-60 23v66h512v-66q-50 -15 -68 -34t-24.5 -50.5
t-6.5 -88.5v-377l-144 -30l-68 72q-119 -73 -273 -73q-292 0 -435.5 170.5t-143.5 516.5q0 182 51 320t141.5 224.5t204 126t243.5 39.5q219 0 402 -53zM1009 1761q-35 -139 -116 -210t-219 -71q-126 0 -207.5 72t-111.5 209l97 30q34 -77 86 -114t140 -37q94 0 148.5 38
t85.5 113z" />
    <glyph glyph-name="Gdotaccent" unicode="&#x120;" horiz-adv-x="1324" 
d="M1145 1328v-284h-137q-23 84 -52.5 129.5t-76 68t-119.5 22.5q-99 0 -175 -60.5t-120 -193t-44 -335.5q0 -175 29.5 -303.5t90 -199.5t149.5 -71q88 0 130 52.5t42 167.5v38q0 76 -5 108.5t-15.5 48.5t-27.5 26t-60 23v66h512v-66q-50 -15 -68 -34t-24.5 -50.5
t-6.5 -88.5v-377l-144 -30l-68 72q-119 -73 -273 -73q-292 0 -435.5 170.5t-143.5 516.5q0 182 51 320t141.5 224.5t204 126t243.5 39.5q219 0 402 -53zM819 1734v-245h-274v245h274z" />
    <glyph glyph-name="uni0122" unicode="&#x122;" horiz-adv-x="1324" 
d="M1145 1328v-284h-137q-23 84 -52.5 129.5t-76 68t-119.5 22.5q-99 0 -175 -60.5t-120 -193t-44 -335.5q0 -175 29.5 -303.5t90 -199.5t149.5 -71q88 0 130 52.5t42 167.5v38q0 76 -5 108.5t-15.5 48.5t-27.5 26t-60 23v66h512v-66q-50 -15 -68 -34t-24.5 -50.5
t-6.5 -88.5v-377l-144 -30l-68 72q-119 -73 -273 -73q-292 0 -435.5 170.5t-143.5 516.5q0 182 51 320t141.5 224.5t204 126t243.5 39.5q219 0 402 -53zM793 -102q17 -42 17 -95q0 -102 -91.5 -163.5t-257.5 -69.5l-16 95q63 10 95 25t47 42t15 73t-8 93h199z" />
    <glyph glyph-name="Hcircumflex" unicode="&#x124;" horiz-adv-x="1478" 
d="M1275 251q0 -77 6.5 -105.5t26.5 -47.5t73 -32v-66h-522v66q58 15 75 30t24 42.5t7 112.5v401h-452v-401q0 -35 2 -65t8 -49t17.5 -32t31.5 -22.5t49 -16.5v-66h-525v66q37 10 58.5 21.5t32 32t13.5 52t3 79.5v862q0 47 -2.5 79t-13 52t-32 32.5t-59.5 22.5v66h525v-66
q-53 -15 -72.5 -33t-27.5 -47.5t-8 -106.5v-334h452v334q0 76 -6.5 105.5t-26 48t-73.5 33.5v66h522v-66q-44 -12 -64 -25.5t-28.5 -34.5t-11 -47t-2.5 -80v-861zM827 1785l226 -251l-71 -67l-238 167h-11l-240 -167l-69 67l229 251h174z" />
    <glyph glyph-name="Hbar" unicode="&#x126;" horiz-adv-x="1488" 
d="M1285 251q0 -77 6.5 -105.5t26.5 -47.5t73 -32v-66h-522v66q58 15 75 30t24 42.5t7 112.5v231h-462v-231q0 -35 2 -65t8 -49t17.5 -32t31.5 -22.5t49 -16.5v-66h-525v66q37 10 58.5 21.5t32 32t13.5 52t3 79.5v862q0 47 -2.5 79t-13 52t-32 32.5t-59.5 22.5v66h525v-66
q-53 -15 -72.5 -33t-27.5 -47.5t-8 -106.5v-163h462v163q0 76 -6.5 105.5t-26 48t-73.5 33.5v66h522v-66q-44 -12 -64 -25.5t-28.5 -34.5t-11 -47t-2.5 -80v-861zM513 608h462v215h-462v-215z" />
    <glyph glyph-name="Igrave" unicode="&#xcc;" horiz-adv-x="716" 
d="M513 251q0 -35 2 -65t8 -49t17.5 -32t31.5 -22.5t49 -16.5v-66h-525v66q37 10 58.5 21.5t32 32t13.5 52t3 79.5v863q0 48 -2.5 79t-13 51.5t-32 32.5t-59.5 22v66h525v-66q-41 -11 -60.5 -23.5t-29.5 -30.5t-14 -47t-4 -85v-862zM302 1798l230 -260l-65 -70l-407 264v66
h242z" />
    <glyph glyph-name="Iacute" unicode="&#xcd;" horiz-adv-x="716" 
d="M513 251q0 -35 2 -65t8 -49t17.5 -32t31.5 -22.5t49 -16.5v-66h-525v66q37 10 58.5 21.5t32 32t13.5 52t3 79.5v863q0 48 -2.5 79t-13 51.5t-32 32.5t-59.5 22v66h525v-66q-41 -11 -60.5 -23.5t-29.5 -30.5t-14 -47t-4 -85v-862zM655 1798v-66l-406 -264l-65 70l244 260
h227z" />
    <glyph glyph-name="Icircumflex" unicode="&#xce;" horiz-adv-x="716" 
d="M513 251q0 -35 2 -65t8 -49t17.5 -32t31.5 -22.5t49 -16.5v-66h-525v66q37 10 58.5 21.5t32 32t13.5 52t3 79.5v863q0 48 -2.5 79t-13 51.5t-32 32.5t-59.5 22v66h525v-66q-41 -11 -60.5 -23.5t-29.5 -30.5t-14 -47t-4 -85v-862zM446 1785l226 -251l-71 -67l-238 167h-11
l-240 -167l-69 67l229 251h174z" />
    <glyph glyph-name="Itilde" unicode="&#x128;" horiz-adv-x="716" 
d="M513 251q0 -35 2 -65t8 -49t17.5 -32t31.5 -22.5t49 -16.5v-66h-525v66q37 10 58.5 21.5t32 32t13.5 52t3 79.5v863q0 48 -2.5 79t-13 51.5t-32 32.5t-59.5 22v66h525v-66q-41 -11 -60.5 -23.5t-29.5 -30.5t-14 -47t-4 -85v-862zM617 1747l94 -41q-57 -118 -110 -174.5
t-109 -56.5q-37 0 -67.5 10.5t-87.5 49.5q-32 22 -49 31.5t-33.5 14.5t-33.5 5q-23 0 -40.5 -8.5t-38 -33t-43.5 -69.5l-93 41q47 91 78.5 136t66.5 70t78 25q24 0 45.5 -5t41.5 -15.5t57 -35.5t54.5 -35t34 -15t38.5 -5q35 0 61.5 26.5t55.5 84.5z" />
    <glyph glyph-name="Idieresis" unicode="&#xcf;" horiz-adv-x="716" 
d="M513 251q0 -35 2 -65t8 -49t17.5 -32t31.5 -22.5t49 -16.5v-66h-525v66q37 10 58.5 21.5t32 32t13.5 52t3 79.5v863q0 48 -2.5 79t-13 51.5t-32 32.5t-59.5 22v66h525v-66q-41 -11 -60.5 -23.5t-29.5 -30.5t-14 -47t-4 -85v-862zM270 1721v-220h-209v220h209zM656 1721
v-220h-209v220h209z" />
    <glyph glyph-name="Imacron" unicode="&#x12a;" horiz-adv-x="716" 
d="M513 251q0 -35 2 -65t8 -49t17.5 -32t31.5 -22.5t49 -16.5v-66h-525v66q37 10 58.5 21.5t32 32t13.5 52t3 79.5v863q0 48 -2.5 79t-13 51.5t-32 32.5t-59.5 22v66h525v-66q-41 -11 -60.5 -23.5t-29.5 -30.5t-14 -47t-4 -85v-862zM655 1530h-594v154h594v-154z" />
    <glyph glyph-name="Ibreve" unicode="&#x12c;" horiz-adv-x="716" 
d="M513 251q0 -35 2 -65t8 -49t17.5 -32t31.5 -22.5t49 -16.5v-66h-525v66q37 10 58.5 21.5t32 32t13.5 52t3 79.5v863q0 48 -2.5 79t-13 51.5t-32 32.5t-59.5 22v66h525v-66q-41 -11 -60.5 -23.5t-29.5 -30.5t-14 -47t-4 -85v-862zM685 1761q-35 -139 -116 -210t-219 -71
q-126 0 -207.5 72t-111.5 209l97 30q34 -77 86 -114t140 -37q94 0 148.5 38t85.5 113z" />
    <glyph glyph-name="Idotaccent" unicode="&#x130;" horiz-adv-x="716" 
d="M513 251q0 -35 2 -65t8 -49t17.5 -32t31.5 -22.5t49 -16.5v-66h-525v66q37 10 58.5 21.5t32 32t13.5 52t3 79.5v863q0 48 -2.5 79t-13 51.5t-32 32.5t-59.5 22v66h525v-66q-41 -11 -60.5 -23.5t-29.5 -30.5t-14 -47t-4 -85v-862zM495 1734v-245h-274v245h274z" />
    <glyph glyph-name="Iogonek" unicode="&#x12e;" horiz-adv-x="716" 
d="M513 251q0 -35 2 -65t8 -49t17.5 -32t31.5 -22.5t49 -16.5v-66h-103q-58 -54 -87.5 -112t-29.5 -111q0 -49 23.5 -74t64.5 -25q30 0 52.5 10t40.5 22l38 -86q-36 -25 -82 -42.5t-98 -17.5q-40 0 -77.5 9.5t-66.5 30t-46.5 55.5t-17.5 85q0 69 43.5 135.5t126.5 120.5
h-306v66q37 10 58.5 21.5t32 32t13.5 52t3 79.5v863q0 48 -2.5 79t-13 51.5t-32 32.5t-59.5 22v66h525v-66q-41 -11 -60.5 -23.5t-29.5 -30.5t-14 -47t-4 -85v-862z" />
    <glyph glyph-name="IJ" unicode="&#x132;" horiz-adv-x="1414" 
d="M513 251q0 -35 2 -65t8 -49t17.5 -32t31.5 -22.5t49 -16.5v-66h-525v66q37 10 58.5 21.5t32 32t13.5 52t3 79.5v863q0 48 -2.5 79t-13 51.5t-32 32.5t-59.5 22v66h525v-66q-41 -11 -60.5 -23.5t-29.5 -30.5t-14 -47t-4 -85v-862zM1220 111q0 -108 -16.5 -175t-55.5 -119
q-46 -63 -123 -111q-91 -57 -224 -98l-50 123q61 27 90.5 51t43 51.5t19.5 69t6 120.5v1090q0 47 -2.5 79t-13 52t-32 32.5t-59.5 22.5v66h525v-66q-42 -11 -61.5 -24t-29 -31t-13.5 -46t-4 -85v-1002z" />
    <glyph glyph-name="Jcircumflex" unicode="&#x134;" horiz-adv-x="698" 
d="M504 111q0 -108 -16.5 -175t-55.5 -119q-46 -63 -123 -111q-91 -57 -224 -98l-50 123q61 27 90.5 51t43 51.5t19.5 69t6 120.5v1090q0 47 -2.5 79t-13 52t-32 32.5t-59.5 22.5v66h525v-66q-42 -11 -61.5 -24t-29 -31t-13.5 -46t-4 -85v-1002zM438 1785l226 -251l-71 -67
l-238 167h-11l-240 -167l-69 67l229 251h174z" />
    <glyph glyph-name="uni0136" unicode="&#x136;" horiz-adv-x="1396" 
d="M1208 266q39 -60 65.5 -95.5t46.5 -55.5t39.5 -30.5t51.5 -19.5v-65h-542v66q34 5 46 16.5t12 30.5q0 16 -4.5 31.5t-21.5 45.5t-69 110l-153 236q-28 43 -48.5 67t-41 34.5t-56.5 10.5h-20v-397q0 -35 2 -65t8 -49t17.5 -32t31.5 -22.5t49 -16.5v-66h-525v66
q37 10 58.5 21.5t32 32t13.5 52t3 79.5v862q0 47 -2.5 79t-13 52t-32 32.5t-59.5 22.5v66h525v-66q-42 -11 -61.5 -24t-29 -31t-13.5 -46t-4 -85v-356h21q46 0 73 10t55.5 36t110 121.5t118 147t50 85t13.5 66.5q0 35 -23.5 55t-66.5 21v66h511v-68q-38 -7 -65 -21
t-62 -45.5t-89 -92.5l-300 -336zM826 -102q17 -42 17 -95q0 -102 -91.5 -163.5t-257.5 -69.5l-16 95q63 10 95 25t47 42t15 73t-8 93h199z" />
    <glyph glyph-name="Lacute" unicode="&#x139;" horiz-adv-x="1128" 
d="M621 1365v-66q-36 -10 -57 -21.5t-32.5 -31.5t-15 -51.5t-3.5 -79.5v-996h194q58 0 93 18t60.5 55.5t44 98t29.5 113.5h137l-22 -404h-953v66q37 10 58.5 22t32 32.5t13.5 52t3 79.5v861q0 47 -2.5 79t-13 52t-32 32.5t-59.5 22.5v66h525zM862 1798v-66l-406 -264l-65 70
l244 260h227z" />
    <glyph glyph-name="Lcaron" unicode="&#x13d;" horiz-adv-x="1128" 
d="M621 1365v-66q-36 -10 -57 -21.5t-32.5 -31.5t-15 -51.5t-3.5 -79.5v-996h194q58 0 93 18t60.5 55.5t44 98t29.5 113.5h137l-22 -404h-953v66q37 10 58.5 22t32 32.5t13.5 52t3 79.5v861q0 47 -2.5 79t-13 52t-32 32.5t-59.5 22.5v66h525zM957 1431q23 -66 23 -129
q0 -83 -48 -154t-168 -162l-64 63q44 48 61.5 98.5t17.5 133.5q0 32 -2.5 60t-13.5 90h194z" />
    <glyph glyph-name="uni013B" unicode="&#x13b;" horiz-adv-x="1128" 
d="M621 1365v-66q-36 -10 -57 -21.5t-32.5 -31.5t-15 -51.5t-3.5 -79.5v-996h194q58 0 93 18t60.5 55.5t44 98t29.5 113.5h137l-22 -404h-953v66q37 10 58.5 22t32 32.5t13.5 52t3 79.5v861q0 47 -2.5 79t-13 52t-32 32.5t-59.5 22.5v66h525zM694 -102q17 -42 17 -95
q0 -102 -91.5 -163.5t-257.5 -69.5l-16 95q63 10 95 25t47 42t15 73t-8 93h199z" />
    <glyph glyph-name="Lslash" unicode="&#x141;" horiz-adv-x="1138" 
d="M523 119h194q58 0 93 18t60.5 55.5t44 98t29.5 113.5h137l-22 -404h-953v66q37 10 58.5 22t32 32.5t13.5 52t3 79.5v300l-132 -90l-60 103l192 119v429q0 47 -2.5 79t-13 52t-32 32.5t-59.5 22.5v66h525v-66q-36 -10 -57 -21.5t-32.5 -31.5t-15 -51.5t-3.5 -79.5v-259
l310 205l61 -102l-371 -235v-605z" />
    <glyph glyph-name="Ldot" unicode="&#x13f;" horiz-adv-x="1375" 
d="M621 1365v-66q-36 -10 -57 -21.5t-32.5 -31.5t-15 -51.5t-3.5 -79.5v-996h194q58 0 93 18t60.5 55.5t44 98t29.5 113.5h137l-22 -404h-953v66q37 10 58.5 22t32 32.5t13.5 52t3 79.5v861q0 47 -2.5 79t-13 52t-32 32.5t-59.5 22.5v66h525zM1350 817v-245h-254v245h254z
" />
    <glyph glyph-name="Nacute" unicode="&#x143;" horiz-adv-x="1391" 
d="M1308 1365v-66q-40 -13 -56.5 -22t-28 -24t-17.5 -45.5t-6 -93.5v-1114h-254l-450 778q-91 158 -134 248h-9q10 -215 10 -454v-322q0 -75 7.5 -105t27 -47.5t73.5 -31.5v-66h-378v66q37 10 58.5 22t32 32.5t13.5 51.5t3 78v865q0 75 -6.5 103.5t-27 47.5t-73.5 33v66h405
l354 -615q33 -58 86 -157t94 -187h16q-11 239 -11 522v186q0 65 -5 94t-15.5 44t-28 25t-58.5 22v66h378zM1023 1798v-66l-406 -264l-65 70l244 260h227z" />
    <glyph glyph-name="Ncaron" unicode="&#x147;" horiz-adv-x="1391" 
d="M1308 1365v-66q-40 -13 -56.5 -22t-28 -24t-17.5 -45.5t-6 -93.5v-1114h-254l-450 778q-91 158 -134 248h-9q10 -215 10 -454v-322q0 -75 7.5 -105t27 -47.5t73.5 -31.5v-66h-378v66q37 10 58.5 22t32 32.5t13.5 51.5t3 78v865q0 75 -6.5 103.5t-27 47.5t-73.5 33v66h405
l354 -615q33 -58 86 -157t94 -187h16q-11 239 -11 522v186q0 65 -5 94t-15.5 44t-28 25t-58.5 22v66h378zM637 1474l-226 251l71 67l238 -167h11l240 167l69 -67l-229 -251h-174z" />
    <glyph glyph-name="Ntilde" unicode="&#xd1;" horiz-adv-x="1391" 
d="M1308 1365v-66q-40 -13 -56.5 -22t-28 -24t-17.5 -45.5t-6 -93.5v-1114h-254l-450 778q-91 158 -134 248h-9q10 -215 10 -454v-322q0 -75 7.5 -105t27 -47.5t73.5 -31.5v-66h-378v66q37 10 58.5 22t32 32.5t13.5 51.5t3 78v865q0 75 -6.5 103.5t-27 47.5t-73.5 33v66h405
l354 -615q33 -58 86 -157t94 -187h16q-11 239 -11 522v186q0 65 -5 94t-15.5 44t-28 25t-58.5 22v66h378zM984 1747l94 -41q-57 -118 -110 -174.5t-109 -56.5q-37 0 -67.5 10.5t-87.5 49.5q-32 22 -49 31.5t-33.5 14.5t-33.5 5q-23 0 -40.5 -8.5t-38 -33t-43.5 -69.5l-93 41
q47 91 78.5 136t66.5 70t78 25q24 0 45.5 -5t41.5 -15.5t57 -35.5t54.5 -35t34 -15t38.5 -5q35 0 61.5 26.5t55.5 84.5z" />
    <glyph glyph-name="uni0145" unicode="&#x145;" horiz-adv-x="1391" 
d="M1308 1365v-66q-40 -13 -56.5 -22t-28 -24t-17.5 -45.5t-6 -93.5v-1114h-254l-450 778q-91 158 -134 248h-9q10 -215 10 -454v-322q0 -75 7.5 -105t27 -47.5t73.5 -31.5v-66h-378v66q37 10 58.5 22t32 32.5t13.5 51.5t3 78v865q0 75 -6.5 103.5t-27 47.5t-73.5 33v66h405
l354 -615q33 -58 86 -157t94 -187h16q-11 239 -11 522v186q0 65 -5 94t-15.5 44t-28 25t-58.5 22v66h378zM798 -102q17 -42 17 -95q0 -102 -91.5 -163.5t-257.5 -69.5l-16 95q63 10 95 25t47 42t15 73t-8 93h199z" />
    <glyph glyph-name="Ograve" unicode="&#xd2;" horiz-adv-x="1424" 
d="M695 -16q-294 0 -441.5 172t-147.5 515q0 225 71.5 384.5t210.5 242.5t331 83q299 0 449 -171.5t150 -509.5q0 -189 -44.5 -324.5t-126.5 -222.5t-196.5 -128t-255.5 -41zM424 698q0 -302 72.5 -449.5t221.5 -147.5q77 0 131 41.5t87.5 116t48 176.5t14.5 224
q0 199 -31.5 333.5t-95 203t-162.5 68.5q-145 0 -215.5 -138.5t-70.5 -427.5zM656 1798l230 -260l-65 -70l-407 264v66h242z" />
    <glyph glyph-name="Oacute" unicode="&#xd3;" horiz-adv-x="1424" 
d="M695 -16q-294 0 -441.5 172t-147.5 515q0 225 71.5 384.5t210.5 242.5t331 83q299 0 449 -171.5t150 -509.5q0 -189 -44.5 -324.5t-126.5 -222.5t-196.5 -128t-255.5 -41zM424 698q0 -302 72.5 -449.5t221.5 -147.5q77 0 131 41.5t87.5 116t48 176.5t14.5 224
q0 199 -31.5 333.5t-95 203t-162.5 68.5q-145 0 -215.5 -138.5t-70.5 -427.5zM1009 1798v-66l-406 -264l-65 70l244 260h227z" />
    <glyph glyph-name="Ocircumflex" unicode="&#xd4;" horiz-adv-x="1424" 
d="M695 -16q-294 0 -441.5 172t-147.5 515q0 225 71.5 384.5t210.5 242.5t331 83q299 0 449 -171.5t150 -509.5q0 -189 -44.5 -324.5t-126.5 -222.5t-196.5 -128t-255.5 -41zM424 698q0 -302 72.5 -449.5t221.5 -147.5q77 0 131 41.5t87.5 116t48 176.5t14.5 224
q0 199 -31.5 333.5t-95 203t-162.5 68.5q-145 0 -215.5 -138.5t-70.5 -427.5zM800 1785l226 -251l-71 -67l-238 167h-11l-240 -167l-69 67l229 251h174z" />
    <glyph glyph-name="Otilde" unicode="&#xd5;" horiz-adv-x="1424" 
d="M695 -16q-294 0 -441.5 172t-147.5 515q0 225 71.5 384.5t210.5 242.5t331 83q299 0 449 -171.5t150 -509.5q0 -189 -44.5 -324.5t-126.5 -222.5t-196.5 -128t-255.5 -41zM424 698q0 -302 72.5 -449.5t221.5 -147.5q77 0 131 41.5t87.5 116t48 176.5t14.5 224
q0 199 -31.5 333.5t-95 203t-162.5 68.5q-145 0 -215.5 -138.5t-70.5 -427.5zM971 1747l94 -41q-57 -118 -110 -174.5t-109 -56.5q-37 0 -67.5 10.5t-87.5 49.5q-32 22 -49 31.5t-33.5 14.5t-33.5 5q-23 0 -40.5 -8.5t-38 -33t-43.5 -69.5l-93 41q47 91 78.5 136t66.5 70
t78 25q24 0 45.5 -5t41.5 -15.5t57 -35.5t54.5 -35t34 -15t38.5 -5q35 0 61.5 26.5t55.5 84.5z" />
    <glyph glyph-name="Odieresis" unicode="&#xd6;" horiz-adv-x="1424" 
d="M695 -16q-294 0 -441.5 172t-147.5 515q0 225 71.5 384.5t210.5 242.5t331 83q299 0 449 -171.5t150 -509.5q0 -189 -44.5 -324.5t-126.5 -222.5t-196.5 -128t-255.5 -41zM424 698q0 -302 72.5 -449.5t221.5 -147.5q77 0 131 41.5t87.5 116t48 176.5t14.5 224
q0 199 -31.5 333.5t-95 203t-162.5 68.5q-145 0 -215.5 -138.5t-70.5 -427.5zM624 1721v-220h-209v220h209zM1010 1721v-220h-209v220h209z" />
    <glyph glyph-name="Omacron" unicode="&#x14c;" horiz-adv-x="1424" 
d="M695 -16q-294 0 -441.5 172t-147.5 515q0 225 71.5 384.5t210.5 242.5t331 83q299 0 449 -171.5t150 -509.5q0 -189 -44.5 -324.5t-126.5 -222.5t-196.5 -128t-255.5 -41zM424 698q0 -302 72.5 -449.5t221.5 -147.5q77 0 131 41.5t87.5 116t48 176.5t14.5 224
q0 199 -31.5 333.5t-95 203t-162.5 68.5q-145 0 -215.5 -138.5t-70.5 -427.5zM1009 1530h-594v154h594v-154z" />
    <glyph glyph-name="Obreve" unicode="&#x14e;" horiz-adv-x="1424" 
d="M695 -16q-294 0 -441.5 172t-147.5 515q0 225 71.5 384.5t210.5 242.5t331 83q299 0 449 -171.5t150 -509.5q0 -189 -44.5 -324.5t-126.5 -222.5t-196.5 -128t-255.5 -41zM424 698q0 -302 72.5 -449.5t221.5 -147.5q77 0 131 41.5t87.5 116t48 176.5t14.5 224
q0 199 -31.5 333.5t-95 203t-162.5 68.5q-145 0 -215.5 -138.5t-70.5 -427.5zM1039 1761q-35 -139 -116 -210t-219 -71q-126 0 -207.5 72t-111.5 209l97 30q34 -77 86 -114t140 -37q94 0 148.5 38t85.5 113z" />
    <glyph glyph-name="Ohungarumlaut" unicode="&#x150;" horiz-adv-x="1424" 
d="M695 -16q-294 0 -441.5 172t-147.5 515q0 225 71.5 384.5t210.5 242.5t331 83q299 0 449 -171.5t150 -509.5q0 -189 -44.5 -324.5t-126.5 -222.5t-196.5 -128t-255.5 -41zM424 698q0 -302 72.5 -449.5t221.5 -147.5q77 0 131 41.5t87.5 116t48 176.5t14.5 224
q0 199 -31.5 333.5t-95 203t-162.5 68.5q-145 0 -215.5 -138.5t-70.5 -427.5zM807 1798v-66l-352 -264l-65 70l236 260h181zM1158 1798v-66l-382 -264l-65 70l270 260h177z" />
    <glyph glyph-name="Oslash" unicode="&#xd8;" horiz-adv-x="1424" 
d="M138 -135l153 251q-185 171 -185 555q0 225 71.5 384.5t210.5 242.5t331 83q180 0 306 -63l111 181h151l-155 -253q186 -171 186 -546q0 -189 -44.5 -324.5t-126.5 -222.5t-196.5 -128t-255.5 -41q-175 0 -297 60l-110 -179h-150zM449 369l467 771q-72 124 -206 124
q-148 0 -219.5 -139.5t-71.5 -426.5q0 -195 30 -329zM973 991l-466 -768q73 -122 211 -122q78 0 133 41.5t89 116t49 176.5t15 224q0 196 -31 332z" />
    <glyph glyph-name="Oslashacute" unicode="&#x1fe;" horiz-adv-x="1424" 
d="M138 -135l153 251q-185 171 -185 555q0 225 71.5 384.5t210.5 242.5t331 83q180 0 306 -63l111 181h151l-155 -253q186 -171 186 -546q0 -189 -44.5 -324.5t-126.5 -222.5t-196.5 -128t-255.5 -41q-175 0 -297 60l-110 -179h-150zM449 369l467 771q-72 124 -206 124
q-148 0 -219.5 -139.5t-71.5 -426.5q0 -195 30 -329zM973 991l-466 -768q73 -122 211 -122q78 0 133 41.5t89 116t49 176.5t15 224q0 196 -31 332zM1009 1798v-66l-406 -264l-65 70l244 260h227z" />
    <glyph glyph-name="OE" unicode="&#x152;" horiz-adv-x="1950" 
d="M1855 1365v-318h-137q-33 95 -56 128.5t-55 53t-109 19.5h-213v-480h127q44 0 69 12.5t41.5 41.5t31.5 90h113v-406h-113q-14 58 -31 88.5t-40.5 43.5t-70.5 13h-127v-534h212q35 0 59 4.5t43 15.5t36.5 30t31 41t28.5 58t33 99h137l-19 -365h-785v134h-10
q-75 -77 -164 -113.5t-199 -36.5q-198 0 -327 78.5t-192 231t-63 377.5t70 384t207.5 242.5t328.5 83.5q109 0 191 -31.5t148 -99.5h10v115h794zM424 698q0 -304 70.5 -450.5t216.5 -146.5q75 0 127.5 41t85 115t47 176.5t14.5 225.5q0 302 -69 453.5t-213 151.5
q-143 0 -211 -139t-68 -427z" />
    <glyph glyph-name="Racute" unicode="&#x154;" horiz-adv-x="1355" 
d="M621 0h-525v66q37 10 58.5 21.5t32 32t13.5 52t3 79.5v862q0 47 -2.5 79t-13 52t-32 32.5t-59.5 22.5v66h583q118 0 200.5 -16.5t144.5 -50.5q52 -28 88 -70.5t55.5 -99t19.5 -131.5q0 -98 -34.5 -168t-93 -116.5t-156.5 -87.5v-10q74 -32 122.5 -85.5t87.5 -135.5
l63 -136q42 -91 83.5 -136.5t98.5 -55.5v-66h-385q-58 80 -131 238l-78 171q-35 76 -60 108t-51.5 44t-81.5 12h-58v-322q0 -75 7 -105t27 -48t74 -32v-66zM513 1246v-556h99q80 0 132 21.5t82.5 60t42 90.5t11.5 114q0 136 -64 204t-190 68q-86 0 -113 -2zM980 1798v-66
l-406 -264l-65 70l244 260h227z" />
    <glyph glyph-name="Rcaron" unicode="&#x158;" horiz-adv-x="1355" 
d="M621 0h-525v66q37 10 58.5 21.5t32 32t13.5 52t3 79.5v862q0 47 -2.5 79t-13 52t-32 32.5t-59.5 22.5v66h583q118 0 200.5 -16.5t144.5 -50.5q52 -28 88 -70.5t55.5 -99t19.5 -131.5q0 -98 -34.5 -168t-93 -116.5t-156.5 -87.5v-10q74 -32 122.5 -85.5t87.5 -135.5
l63 -136q42 -91 83.5 -136.5t98.5 -55.5v-66h-385q-58 80 -131 238l-78 171q-35 76 -60 108t-51.5 44t-81.5 12h-58v-322q0 -75 7 -105t27 -48t74 -32v-66zM513 1246v-556h99q80 0 132 21.5t82.5 60t42 90.5t11.5 114q0 136 -64 204t-190 68q-86 0 -113 -2zM594 1474
l-226 251l71 67l238 -167h11l240 167l69 -67l-229 -251h-174z" />
    <glyph glyph-name="uni0156" unicode="&#x156;" horiz-adv-x="1355" 
d="M621 0h-525v66q37 10 58.5 21.5t32 32t13.5 52t3 79.5v862q0 47 -2.5 79t-13 52t-32 32.5t-59.5 22.5v66h583q118 0 200.5 -16.5t144.5 -50.5q52 -28 88 -70.5t55.5 -99t19.5 -131.5q0 -98 -34.5 -168t-93 -116.5t-156.5 -87.5v-10q74 -32 122.5 -85.5t87.5 -135.5
l63 -136q42 -91 83.5 -136.5t98.5 -55.5v-66h-385q-58 80 -131 238l-78 171q-35 76 -60 108t-51.5 44t-81.5 12h-58v-322q0 -75 7 -105t27 -48t74 -32v-66zM513 1246v-556h99q80 0 132 21.5t82.5 60t42 90.5t11.5 114q0 136 -64 204t-190 68q-86 0 -113 -2zM813 -102
q17 -42 17 -95q0 -102 -91.5 -163.5t-257.5 -69.5l-16 95q63 10 95 25t47 42t15 73t-8 93h199z" />
    <glyph glyph-name="Sacute" unicode="&#x15a;" horiz-adv-x="1051" 
d="M221 337q25 -119 83.5 -177.5t171.5 -58.5q59 0 106 20t75.5 64.5t28.5 111.5q0 62 -23 107.5t-74 86.5t-142 87q-78 39 -141 81t-107.5 92.5t-69 110.5t-24.5 135q0 123 61 209t176.5 130.5t267.5 44.5q89 0 170 -9.5t185 -33.5v-290h-137q-19 79 -48.5 125.5
t-73.5 68.5t-111 22q-57 0 -102 -20t-71 -59.5t-26 -95.5q0 -58 22.5 -100.5t75.5 -83t154 -92.5q123 -64 193.5 -125.5t104 -134t33.5 -168.5q0 -123 -57 -213.5t-166 -139t-252 -48.5q-102 0 -212.5 11.5t-207.5 33.5v308h137zM833 1798v-66l-406 -264l-65 70l244 260h227
z" />
    <glyph glyph-name="Scircumflex" unicode="&#x15c;" horiz-adv-x="1051" 
d="M221 337q25 -119 83.5 -177.5t171.5 -58.5q59 0 106 20t75.5 64.5t28.5 111.5q0 62 -23 107.5t-74 86.5t-142 87q-78 39 -141 81t-107.5 92.5t-69 110.5t-24.5 135q0 123 61 209t176.5 130.5t267.5 44.5q89 0 170 -9.5t185 -33.5v-290h-137q-19 79 -48.5 125.5
t-73.5 68.5t-111 22q-57 0 -102 -20t-71 -59.5t-26 -95.5q0 -58 22.5 -100.5t75.5 -83t154 -92.5q123 -64 193.5 -125.5t104 -134t33.5 -168.5q0 -123 -57 -213.5t-166 -139t-252 -48.5q-102 0 -212.5 11.5t-207.5 33.5v308h137zM624 1785l226 -251l-71 -67l-238 167h-11
l-240 -167l-69 67l229 251h174z" />
    <glyph glyph-name="Scaron" unicode="&#x160;" horiz-adv-x="1051" 
d="M221 337q25 -119 83.5 -177.5t171.5 -58.5q59 0 106 20t75.5 64.5t28.5 111.5q0 62 -23 107.5t-74 86.5t-142 87q-78 39 -141 81t-107.5 92.5t-69 110.5t-24.5 135q0 123 61 209t176.5 130.5t267.5 44.5q89 0 170 -9.5t185 -33.5v-290h-137q-19 79 -48.5 125.5
t-73.5 68.5t-111 22q-57 0 -102 -20t-71 -59.5t-26 -95.5q0 -58 22.5 -100.5t75.5 -83t154 -92.5q123 -64 193.5 -125.5t104 -134t33.5 -168.5q0 -123 -57 -213.5t-166 -139t-252 -48.5q-102 0 -212.5 11.5t-207.5 33.5v308h137zM447 1474l-226 251l71 67l238 -167h11
l240 167l69 -67l-229 -251h-174z" />
    <glyph glyph-name="Scedilla" unicode="&#x15e;" horiz-adv-x="1051" 
d="M221 337q25 -119 83.5 -177.5t171.5 -58.5q59 0 106 20t75.5 64.5t28.5 111.5q0 62 -23 107.5t-74 86.5t-142 87q-78 39 -141 81t-107.5 92.5t-69 110.5t-24.5 135q0 123 61 209t176.5 130.5t267.5 44.5q89 0 170 -9.5t185 -33.5v-290h-137q-19 79 -48.5 125.5
t-73.5 68.5t-111 22q-57 0 -102 -20t-71 -59.5t-26 -95.5q0 -58 22.5 -100.5t75.5 -83t154 -92.5q123 -64 193.5 -125.5t104 -134t33.5 -168.5q0 -137 -70.5 -232.5t-203.5 -139.5l-117 -81q17 -23 25.5 -56.5t8.5 -72.5q0 -102 -91.5 -163.5t-257.5 -69.5l-16 95
q82 12 119.5 40t37.5 87q0 37 -5 63v43l133 88q-18 -2 -38 -2q-102 0 -212.5 11.5t-207.5 33.5v308h137z" />
    <glyph glyph-name="uni0218" unicode="&#x218;" horiz-adv-x="1051" 
d="M221 337q25 -119 83.5 -177.5t171.5 -58.5q59 0 106 20t75.5 64.5t28.5 111.5q0 62 -23 107.5t-74 86.5t-142 87q-78 39 -141 81t-107.5 92.5t-69 110.5t-24.5 135q0 123 61 209t176.5 130.5t267.5 44.5q89 0 170 -9.5t185 -33.5v-290h-137q-19 79 -48.5 125.5
t-73.5 68.5t-111 22q-57 0 -102 -20t-71 -59.5t-26 -95.5q0 -58 22.5 -100.5t75.5 -83t154 -92.5q123 -64 193.5 -125.5t104 -134t33.5 -168.5q0 -123 -57 -213.5t-166 -139t-252 -48.5q-102 0 -212.5 11.5t-207.5 33.5v308h137zM651 -102q17 -42 17 -95
q0 -102 -91.5 -163.5t-257.5 -69.5l-16 95q63 10 95 25t47 42t15 73t-8 93h199z" />
    <glyph glyph-name="Tcaron" unicode="&#x164;" horiz-adv-x="1309" 
d="M379 0v66q42 7 66.5 18.5t36.5 32.5t15 53.5t3 80.5v997h-81q-60 0 -92 -14t-55.5 -44t-40.5 -80.5t-28 -95.5h-137v351h1177v-351h-137q-19 68 -30 100t-24.5 54.5t-28.5 37.5t-32 24t-42.5 13.5t-66.5 4.5h-72v-997q0 -53 3 -80.5t11 -44.5t19.5 -27.5t32 -19
t55.5 -13.5v-66h-552zM566 1474l-226 251l71 67l238 -167h11l240 167l69 -67l-229 -251h-174z" />
    <glyph glyph-name="uni0162" unicode="&#x162;" horiz-adv-x="1309" 
d="M379 0v66q42 7 66.5 18.5t36.5 32.5t15 53.5t3 80.5v997h-81q-60 0 -92 -14t-55.5 -44t-40.5 -80.5t-28 -95.5h-137v351h1177v-351h-137q-19 68 -30 100t-24.5 54.5t-28.5 37.5t-32 24t-42.5 13.5t-66.5 4.5h-72v-997q0 -53 3 -80.5t11 -44.5t19.5 -27.5t32 -19
t55.5 -13.5v-66h-552zM762 -102q17 -42 17 -95q0 -102 -91.5 -163.5t-257.5 -69.5l-16 95q63 10 95 25t47 42t15 73t-8 93h199z" />
    <glyph glyph-name="Tbar" unicode="&#x166;" horiz-adv-x="1309" 
d="M1052 606h-242v-355q0 -53 3 -80.5t11 -44.5t19.5 -27.5t32 -19t55.5 -13.5v-66h-552v66q42 7 66.5 18.5t36.5 32.5t15 53.5t3 80.5v355h-242v126h242v516h-81q-60 0 -92 -14t-55.5 -44t-40.5 -80.5t-28 -95.5h-137v351h1177v-351h-137q-19 68 -30 100t-24.5 54.5
t-28.5 37.5t-32 24t-42.5 13.5t-66.5 4.5h-72v-516h242v-126z" />
    <glyph glyph-name="Ugrave" unicode="&#xd9;" horiz-adv-x="1385" 
d="M977 1114q0 75 -6.5 104.5t-25.5 47.5t-74 33v66h440v-66q-36 -10 -57 -21.5t-32 -32t-14 -52t-3 -79.5v-625q0 -124 -20 -207.5t-62 -140.5t-104.5 -92t-140.5 -50t-175 -15q-142 0 -240 29.5t-159.5 89t-91 144.5t-29.5 219v647q0 47 -2.5 79t-13 52t-32 32.5
t-59.5 22.5v66h525v-66q-41 -11 -60.5 -23.5t-29.5 -30.5t-14 -47t-4 -85v-660q0 -79 10 -144t36.5 -111.5t73.5 -71.5t121 -25q102 0 152 41t70.5 114.5t20.5 219.5v638zM631 1798l230 -260l-65 -70l-407 264v66h242z" />
    <glyph glyph-name="Uacute" unicode="&#xda;" horiz-adv-x="1385" 
d="M977 1114q0 75 -6.5 104.5t-25.5 47.5t-74 33v66h440v-66q-36 -10 -57 -21.5t-32 -32t-14 -52t-3 -79.5v-625q0 -124 -20 -207.5t-62 -140.5t-104.5 -92t-140.5 -50t-175 -15q-142 0 -240 29.5t-159.5 89t-91 144.5t-29.5 219v647q0 47 -2.5 79t-13 52t-32 32.5
t-59.5 22.5v66h525v-66q-41 -11 -60.5 -23.5t-29.5 -30.5t-14 -47t-4 -85v-660q0 -79 10 -144t36.5 -111.5t73.5 -71.5t121 -25q102 0 152 41t70.5 114.5t20.5 219.5v638zM1060 1798v-66l-406 -264l-65 70l244 260h227z" />
    <glyph glyph-name="Ucircumflex" unicode="&#xdb;" horiz-adv-x="1385" 
d="M977 1114q0 75 -6.5 104.5t-25.5 47.5t-74 33v66h440v-66q-36 -10 -57 -21.5t-32 -32t-14 -52t-3 -79.5v-625q0 -124 -20 -207.5t-62 -140.5t-104.5 -92t-140.5 -50t-175 -15q-142 0 -240 29.5t-159.5 89t-91 144.5t-29.5 219v647q0 47 -2.5 79t-13 52t-32 32.5
t-59.5 22.5v66h525v-66q-41 -11 -60.5 -23.5t-29.5 -30.5t-14 -47t-4 -85v-660q0 -79 10 -144t36.5 -111.5t73.5 -71.5t121 -25q102 0 152 41t70.5 114.5t20.5 219.5v638zM811 1785l226 -251l-71 -67l-238 167h-11l-240 -167l-69 67l229 251h174z" />
    <glyph glyph-name="Utilde" unicode="&#x168;" horiz-adv-x="1385" 
d="M977 1114q0 75 -6.5 104.5t-25.5 47.5t-74 33v66h440v-66q-36 -10 -57 -21.5t-32 -32t-14 -52t-3 -79.5v-625q0 -124 -20 -207.5t-62 -140.5t-104.5 -92t-140.5 -50t-175 -15q-142 0 -240 29.5t-159.5 89t-91 144.5t-29.5 219v647q0 47 -2.5 79t-13 52t-32 32.5
t-59.5 22.5v66h525v-66q-41 -11 -60.5 -23.5t-29.5 -30.5t-14 -47t-4 -85v-660q0 -79 10 -144t36.5 -111.5t73.5 -71.5t121 -25q102 0 152 41t70.5 114.5t20.5 219.5v638zM981 1747l94 -41q-57 -118 -110 -174.5t-109 -56.5q-37 0 -67.5 10.5t-87.5 49.5q-32 22 -49 31.5
t-33.5 14.5t-33.5 5q-23 0 -40.5 -8.5t-38 -33t-43.5 -69.5l-93 41q47 91 78.5 136t66.5 70t78 25q24 0 45.5 -5t41.5 -15.5t57 -35.5t54.5 -35t34 -15t38.5 -5q35 0 61.5 26.5t55.5 84.5z" />
    <glyph glyph-name="Udieresis" unicode="&#xdc;" horiz-adv-x="1385" 
d="M977 1114q0 75 -6.5 104.5t-25.5 47.5t-74 33v66h440v-66q-36 -10 -57 -21.5t-32 -32t-14 -52t-3 -79.5v-625q0 -124 -20 -207.5t-62 -140.5t-104.5 -92t-140.5 -50t-175 -15q-142 0 -240 29.5t-159.5 89t-91 144.5t-29.5 219v647q0 47 -2.5 79t-13 52t-32 32.5
t-59.5 22.5v66h525v-66q-41 -11 -60.5 -23.5t-29.5 -30.5t-14 -47t-4 -85v-660q0 -79 10 -144t36.5 -111.5t73.5 -71.5t121 -25q102 0 152 41t70.5 114.5t20.5 219.5v638zM634 1721v-220h-209v220h209zM1020 1721v-220h-209v220h209z" />
    <glyph glyph-name="Umacron" unicode="&#x16a;" horiz-adv-x="1385" 
d="M977 1114q0 75 -6.5 104.5t-25.5 47.5t-74 33v66h440v-66q-36 -10 -57 -21.5t-32 -32t-14 -52t-3 -79.5v-625q0 -124 -20 -207.5t-62 -140.5t-104.5 -92t-140.5 -50t-175 -15q-142 0 -240 29.5t-159.5 89t-91 144.5t-29.5 219v647q0 47 -2.5 79t-13 52t-32 32.5
t-59.5 22.5v66h525v-66q-41 -11 -60.5 -23.5t-29.5 -30.5t-14 -47t-4 -85v-660q0 -79 10 -144t36.5 -111.5t73.5 -71.5t121 -25q102 0 152 41t70.5 114.5t20.5 219.5v638zM1019 1530h-594v154h594v-154z" />
    <glyph glyph-name="Ubreve" unicode="&#x16c;" horiz-adv-x="1385" 
d="M977 1114q0 75 -6.5 104.5t-25.5 47.5t-74 33v66h440v-66q-36 -10 -57 -21.5t-32 -32t-14 -52t-3 -79.5v-625q0 -124 -20 -207.5t-62 -140.5t-104.5 -92t-140.5 -50t-175 -15q-142 0 -240 29.5t-159.5 89t-91 144.5t-29.5 219v647q0 47 -2.5 79t-13 52t-32 32.5
t-59.5 22.5v66h525v-66q-41 -11 -60.5 -23.5t-29.5 -30.5t-14 -47t-4 -85v-660q0 -79 10 -144t36.5 -111.5t73.5 -71.5t121 -25q102 0 152 41t70.5 114.5t20.5 219.5v638zM1049 1761q-35 -139 -116 -210t-219 -71q-126 0 -207.5 72t-111.5 209l97 30q34 -77 86 -114t140 -37
q94 0 148.5 38t85.5 113z" />
    <glyph glyph-name="Uring" unicode="&#x16e;" horiz-adv-x="1385" 
d="M977 1114q0 75 -6.5 104.5t-25.5 47.5t-74 33v66h440v-66q-36 -10 -57 -21.5t-32 -32t-14 -52t-3 -79.5v-625q0 -124 -20 -207.5t-62 -140.5t-104.5 -92t-140.5 -50t-175 -15q-142 0 -240 29.5t-159.5 89t-91 144.5t-29.5 219v647q0 47 -2.5 79t-13 52t-32 32.5
t-59.5 22.5v66h525v-66q-41 -11 -60.5 -23.5t-29.5 -30.5t-14 -47t-4 -85v-660q0 -79 10 -144t36.5 -111.5t73.5 -71.5t121 -25q102 0 152 41t70.5 114.5t20.5 219.5v638zM717 1415q-113 0 -172 53t-59 154q0 70 31.5 118.5t87 72t125.5 23.5q113 0 171 -52.5t58 -152.5
q0 -105 -63.5 -160.5t-178.5 -55.5zM606 1629q0 -65 30 -101t89 -36q55 0 84.5 33.5t29.5 94.5q0 67 -31 103t-85 36q-58 0 -87.5 -34t-29.5 -96z" />
    <glyph glyph-name="Uhungarumlaut" unicode="&#x170;" horiz-adv-x="1385" 
d="M977 1114q0 75 -6.5 104.5t-25.5 47.5t-74 33v66h440v-66q-36 -10 -57 -21.5t-32 -32t-14 -52t-3 -79.5v-625q0 -124 -20 -207.5t-62 -140.5t-104.5 -92t-140.5 -50t-175 -15q-142 0 -240 29.5t-159.5 89t-91 144.5t-29.5 219v647q0 47 -2.5 79t-13 52t-32 32.5
t-59.5 22.5v66h525v-66q-41 -11 -60.5 -23.5t-29.5 -30.5t-14 -47t-4 -85v-660q0 -79 10 -144t36.5 -111.5t73.5 -71.5t121 -25q102 0 152 41t70.5 114.5t20.5 219.5v638zM837 1798v-66l-352 -264l-65 70l236 260h181zM1188 1798v-66l-382 -264l-65 70l270 260h177z" />
    <glyph glyph-name="Uogonek" unicode="&#x172;" horiz-adv-x="1385" 
d="M183 1113q0 47 -2.5 79t-13 52t-32 32.5t-59.5 22.5v66h525v-66q-41 -11 -60.5 -23.5t-29.5 -30.5t-14 -47t-4 -85v-660q0 -79 10 -144t36.5 -111.5t73.5 -71.5t121 -25q102 0 152 41t70.5 114.5t20.5 219.5v638q0 75 -6.5 104.5t-25.5 47.5t-74 33v66h440v-66
q-36 -10 -57 -21.5t-32 -32t-14 -52t-3 -79.5v-625q0 -159 -33 -252t-108 -158q-74 -64 -114.5 -110t-63.5 -93t-23 -99q0 -49 23.5 -74t64.5 -25q30 0 52.5 10t40.5 22l38 -86q-36 -25 -82 -42.5t-98 -17.5q-40 0 -77.5 9.5t-66.5 30t-46.5 55.5t-17.5 85q0 65 40.5 129.5
t123.5 123.5q-84 -13 -155 -13q-142 0 -240 29.5t-159.5 89t-91 144.5t-29.5 219v647z" />
    <glyph glyph-name="Wgrave" unicode="&#x1e80;" horiz-adv-x="1969" 
d="M1623 1022q14 46 24 92.5t10 79.5q0 52 -25.5 76.5t-76.5 28.5v66h417v-66q-37 -8 -62 -28.5t-45 -57.5t-50 -124l-375 -1096h-238l-226 939l-268 -939h-250l-301 1120q-22 82 -39 114t-38 48t-53 24v66h538v-66q-52 -6 -77 -29t-25 -65q0 -53 29 -165l173 -695l287 1020
h226l234 -1020zM991 1798l230 -260l-65 -70l-407 264v66h242z" />
    <glyph glyph-name="Wacute" unicode="&#x1e82;" horiz-adv-x="1969" 
d="M1623 1022q14 46 24 92.5t10 79.5q0 52 -25.5 76.5t-76.5 28.5v66h417v-66q-37 -8 -62 -28.5t-45 -57.5t-50 -124l-375 -1096h-238l-226 939l-268 -939h-250l-301 1120q-22 82 -39 114t-38 48t-53 24v66h538v-66q-52 -6 -77 -29t-25 -65q0 -53 29 -165l173 -695l287 1020
h226l234 -1020zM1345 1798v-66l-406 -264l-65 70l244 260h227z" />
    <glyph glyph-name="Wcircumflex" unicode="&#x174;" horiz-adv-x="1969" 
d="M1623 1022q14 46 24 92.5t10 79.5q0 52 -25.5 76.5t-76.5 28.5v66h417v-66q-37 -8 -62 -28.5t-45 -57.5t-50 -124l-375 -1096h-238l-226 939l-268 -939h-250l-301 1120q-22 82 -39 114t-38 48t-53 24v66h538v-66q-52 -6 -77 -29t-25 -65q0 -53 29 -165l173 -695l287 1020
h226l234 -1020zM1136 1785l226 -251l-71 -67l-238 167h-11l-240 -167l-69 67l229 251h174z" />
    <glyph glyph-name="Wdieresis" unicode="&#x1e84;" horiz-adv-x="1969" 
d="M1623 1022q14 46 24 92.5t10 79.5q0 52 -25.5 76.5t-76.5 28.5v66h417v-66q-37 -8 -62 -28.5t-45 -57.5t-50 -124l-375 -1096h-238l-226 939l-268 -939h-250l-301 1120q-22 82 -39 114t-38 48t-53 24v66h538v-66q-52 -6 -77 -29t-25 -65q0 -53 29 -165l173 -695l287 1020
h226l234 -1020zM959 1721v-220h-209v220h209zM1345 1721v-220h-209v220h209z" />
    <glyph glyph-name="Ygrave" unicode="&#x1ef2;" horiz-adv-x="1238" 
d="M762 525v-274q0 -53 3 -80.5t11 -44.5t19.5 -27.5t32 -19t55.5 -13.5v-66h-552v66q41 7 65.5 18t36.5 32t15.5 53.5t3.5 81.5v274l-271 572q-35 73 -55 108q-23 41 -39.5 59t-30.5 25t-39 10v66h533v-66q-77 -10 -77 -76q0 -26 12.5 -62t40.5 -96l169 -376l183 367
q27 55 37.5 91.5t10.5 72.5t-20.5 56.5t-57.5 22.5v66h401v-66q-27 -6 -44.5 -16.5t-38.5 -33t-50 -67.5t-67 -117zM566 1798l230 -260l-65 -70l-407 264v66h242z" />
    <glyph glyph-name="Yacute" unicode="&#xdd;" horiz-adv-x="1238" 
d="M762 525v-274q0 -53 3 -80.5t11 -44.5t19.5 -27.5t32 -19t55.5 -13.5v-66h-552v66q41 7 65.5 18t36.5 32t15.5 53.5t3.5 81.5v274l-271 572q-35 73 -55 108q-23 41 -39.5 59t-30.5 25t-39 10v66h533v-66q-77 -10 -77 -76q0 -26 12.5 -62t40.5 -96l169 -376l183 367
q27 55 37.5 91.5t10.5 72.5t-20.5 56.5t-57.5 22.5v66h401v-66q-27 -6 -44.5 -16.5t-38.5 -33t-50 -67.5t-67 -117zM999 1798v-66l-406 -264l-65 70l244 260h227z" />
    <glyph glyph-name="Ycircumflex" unicode="&#x176;" horiz-adv-x="1238" 
d="M762 525v-274q0 -53 3 -80.5t11 -44.5t19.5 -27.5t32 -19t55.5 -13.5v-66h-552v66q41 7 65.5 18t36.5 32t15.5 53.5t3.5 81.5v274l-271 572q-35 73 -55 108q-23 41 -39.5 59t-30.5 25t-39 10v66h533v-66q-77 -10 -77 -76q0 -26 12.5 -62t40.5 -96l169 -376l183 367
q27 55 37.5 91.5t10.5 72.5t-20.5 56.5t-57.5 22.5v66h401v-66q-27 -6 -44.5 -16.5t-38.5 -33t-50 -67.5t-67 -117zM745 1785l226 -251l-71 -67l-238 167h-11l-240 -167l-69 67l229 251h174z" />
    <glyph glyph-name="Ydieresis" unicode="&#x178;" horiz-adv-x="1238" 
d="M762 525v-274q0 -53 3 -80.5t11 -44.5t19.5 -27.5t32 -19t55.5 -13.5v-66h-552v66q41 7 65.5 18t36.5 32t15.5 53.5t3.5 81.5v274l-271 572q-35 73 -55 108q-23 41 -39.5 59t-30.5 25t-39 10v66h533v-66q-77 -10 -77 -76q0 -26 12.5 -62t40.5 -96l169 -376l183 367
q27 55 37.5 91.5t10.5 72.5t-20.5 56.5t-57.5 22.5v66h401v-66q-27 -6 -44.5 -16.5t-38.5 -33t-50 -67.5t-67 -117zM568 1721v-220h-209v220h209zM954 1721v-220h-209v220h209z" />
    <glyph glyph-name="Zacute" unicode="&#x179;" horiz-adv-x="1160" 
d="M448 119h286q55 0 92 22.5t64 71t56 168.5h136v-381h-1002v66l640 1180h-271q-66 0 -104 -24t-65 -77t-47 -141h-137v361h992v-66zM878 1798v-66l-406 -264l-65 70l244 260h227z" />
    <glyph glyph-name="Zcaron" unicode="&#x17d;" horiz-adv-x="1160" 
d="M448 119h286q55 0 92 22.5t64 71t56 168.5h136v-381h-1002v66l640 1180h-271q-66 0 -104 -24t-65 -77t-47 -141h-137v361h992v-66zM492 1474l-226 251l71 67l238 -167h11l240 167l69 -67l-229 -251h-174z" />
    <glyph glyph-name="Zdotaccent" unicode="&#x17b;" horiz-adv-x="1160" 
d="M448 119h286q55 0 92 22.5t64 71t56 168.5h136v-381h-1002v66l640 1180h-271q-66 0 -104 -24t-65 -77t-47 -141h-137v361h992v-66zM717 1734v-245h-274v245h274z" />
    <glyph glyph-name="Eng" unicode="&#x14a;" horiz-adv-x="1391" 
d="M1200 50q0 -159 -32.5 -258t-106 -148.5t-196.5 -49.5q-78 0 -165 23v225h122q7 -44 26.5 -63t56.5 -19q64 0 98 57t34 162v21h-91l-450 779q-92 159 -134 248h-9q10 -215 10 -454v-323q0 -75 7.5 -105t27 -47.5t73.5 -31.5l-5 -66h-373v66q37 10 58.5 22t32 32.5
t13.5 51.5t3 78v865q0 75 -6.5 103.5t-27 47.5t-73.5 33v66h405l354 -615q33 -58 86 -157t94 -187h16q-11 239 -11 522v186q0 65 -5 94t-15.5 44t-28 25t-58.5 22v66h378v-66q-40 -13 -56.5 -22t-28 -24t-17.5 -45.5t-6 -93.5v-1064z" />
    <glyph glyph-name="Eth" unicode="&#xd0;" horiz-adv-x="1452" 
d="M625 1365q167 0 279 -26t199 -82t140.5 -133.5t79.5 -180t26 -231.5q0 -156 -36.5 -280t-109.5 -212q-65 -79 -159.5 -130t-217.5 -72q-106 -18 -267 -18h-454v66q37 10 58.5 21.5t32 32t13.5 52t3 79.5v401h-171v126h171v335q0 47 -2.5 79t-13 52t-32 32.5t-59.5 22.5
v66h520zM784 652h-262v-531q18 -3 91 -3q75 0 132 15q53 13 97 41q40 26 73 67q36 46 60 105q26 64 39 148t13 194q0 190 -51 315.5t-143.5 185t-221.5 59.5q-62 0 -89 -2v-468h262v-126z" />
    <glyph glyph-name="Thorn" unicode="&#xde;" horiz-adv-x="1264" 
d="M621 1299q-36 -10 -57.5 -22t-33 -32t-14.5 -51t-3 -78h164q253 0 379 -90.5t126 -278.5q0 -133 -59 -231t-171 -148.5t-280 -50.5h-86q-37 0 -73 2v-68q0 -48 2.5 -72t6 -37t10 -24.5t17.5 -20.5t31 -17t54 -14v-66h-538v66q37 10 58.5 21.5t32 32t13.5 52t3 79.5v863
q0 48 -2.5 79t-13 51.5t-32 32.5t-59.5 22v66h525v-66zM513 997v-563h86q100 0 159 28.5t87.5 90.5t28.5 167q0 104 -28.5 165.5t-83.5 87.5t-141 26q-70 0 -108 -2z" />
    <glyph glyph-name="a" unicode="a" horiz-adv-x="1096" 
d="M677 131l-15 5q-82 -80 -159.5 -116t-164.5 -36q-86 0 -149.5 31.5t-96 87.5t-32.5 129q0 147 144.5 231.5t438.5 106.5v95q0 93 -21 143.5t-54 71t-79 20.5t-79.5 -16t-60.5 -60.5t-40 -123.5h-189v182q92 41 153 63t120.5 36.5t106.5 20.5t94 6q121 0 193.5 -32
t108.5 -104t36 -199v-390q0 -66 3 -102t9.5 -53.5t16.5 -28t24.5 -17t54.5 -16.5v-66h-372zM644 472q-155 -4 -229.5 -58t-74.5 -158q0 -62 34 -94.5t94 -32.5q46 0 87 24.5t65 65.5t24 87v166z" />
    <glyph glyph-name="b" unicode="b" horiz-adv-x="1211" 
d="M159 1087q0 72 -1 110t-6 66t-16 44t-29.5 26t-60.5 19v66l279 14h123v-573l1 -1q60 55 105 85t96 47.5t109 17.5q178 0 267 -125.5t89 -375.5q0 -173 -52.5 -289.5t-156.5 -175t-256 -58.5q-158 0 -289 57l-74 -57l-128 18v1085zM448 328q0 -123 42.5 -181.5
t131.5 -58.5q92 0 140.5 96.5t48.5 275.5q0 197 -43 294t-134 97q-44 0 -87 -23t-71 -65.5t-28 -93.5v-341z" />
    <glyph glyph-name="c" unicode="c" horiz-adv-x="960" 
d="M848 256l77 -93q-98 -96 -189.5 -137.5t-199.5 -41.5q-217 0 -331 127.5t-114 370.5q0 164 62.5 283.5t179.5 181t268 61.5q81 0 161.5 -11.5t146.5 -31.5v-241h-198q-15 94 -45 137t-86 43q-37 0 -70.5 -18.5t-59 -64t-40.5 -122t-15 -193.5t22 -197.5t71 -124
t129 -43.5q58 0 109.5 25t121.5 90z" />
    <glyph glyph-name="d" unicode="d" horiz-adv-x="1223" 
d="M1052 292q0 -76 2.5 -111t11.5 -56t29 -34.5t67 -23.5v-67l-272 -9h-121l9 144l-15 1q-72 -73 -151.5 -112.5t-152.5 -39.5q-182 0 -272.5 125t-90.5 376q0 170 55 286.5t163.5 176.5t261.5 60q44 0 86.5 -5.5t100.5 -21.5v91q0 107 -3 151.5t-12.5 68t-28.5 36.5t-69 23
v67l277 14h125v-1140zM763 664q0 122 -41 181t-126 59q-62 0 -106.5 -44.5t-67 -128.5t-22.5 -199q0 -197 43 -294t134 -97q43 0 85.5 21.5t71.5 66t29 102.5v333z" />
    <glyph glyph-name="e" unicode="e" horiz-adv-x="1087" 
d="M991 182q-102 -108 -202 -153t-230 -45q-233 0 -350.5 127.5t-117.5 378.5q0 162 60.5 279.5t171.5 178t258 60.5q91 0 159.5 -21t117.5 -58.5t81 -90.5q38 -63 57 -144q20 -83 21 -201h-634q1 -181 64.5 -266.5t193.5 -85.5q76 0 137 28.5t132 100.5zM721 601
q-4 153 -40 228t-116 75q-77 0 -122.5 -78t-54.5 -225h333z" />
    <glyph glyph-name="f" unicode="f" horiz-adv-x="668" 
d="M84 66q47 14 65.5 31t26.5 47.5t8 106.5v616h-122v69q47 7 65.5 15.5t30.5 23t19 37.5t10 59q16 180 133.5 272.5t332.5 92.5q86 0 153 -14v-204h-136q-17 55 -37.5 81t-53.5 26q-43 0 -66 -28.5t-31.5 -81t-8.5 -147.5v-76h193v-125h-193v-616q0 -75 8 -106t28.5 -49
t72.5 -30v-66h-498v66z" />
    <glyph glyph-name="g" unicode="g" horiz-adv-x="1065" 
d="M1053 858l-171 19l-4 -11q28 -28 46.5 -76.5t18.5 -116.5q0 -174 -105.5 -264t-310.5 -90q-99 0 -162 18q-50 -45 -50 -97q0 -30 12.5 -46t42.5 -24.5t85 -8.5h248q167 0 250 -65t83 -202q0 -107 -60.5 -184t-173.5 -117.5t-268 -40.5q-113 0 -205 10t-157 36.5
t-100.5 72.5t-35.5 117q0 57 36 105t101 82q-42 30 -61 69t-19 96q0 47 19.5 88t52 74.5t84.5 73.5q-78 44 -118 115.5t-40 167.5q0 93 33.5 159.5t92 108.5t138 61.5t171.5 19.5q51 0 90 -5t76 -11h361v-134zM378 671q0 -126 35.5 -187.5t111.5 -61.5q69 0 105.5 57
t36.5 174q0 123 -35.5 187.5t-108.5 64.5q-74 0 -109.5 -57.5t-35.5 -176.5zM342 -64q-36 -28 -54.5 -61t-18.5 -76q0 -72 62.5 -106.5t197.5 -34.5q126 0 191.5 42t65.5 118q0 34 -12 58t-47 40t-99 16h-172q-73 0 -114 4z" />
    <glyph glyph-name="h" unicode="h" horiz-adv-x="1222" 
d="M464 860q91 81 162.5 114.5t146.5 33.5q110 0 170 -40.5t87.5 -116.5t27.5 -197v-365q0 -44 1.5 -82.5t7.5 -61.5t16.5 -37.5t29.5 -24.5t46 -17v-66h-485v66q47 11 64.5 32t24 58t6.5 132v261q0 100 -6.5 155.5t-22 86t-40 45.5t-64.5 15q-38 0 -79.5 -23.5t-69 -64
t-27.5 -86.5v-388q0 -56 1.5 -86.5t4.5 -47t8.5 -29.5t14.5 -24t26 -20t45 -16v-66h-490v66q30 7 47 16.5t26.5 22t16.5 32t9 54t2 98.5v780q0 86 -1.5 126.5t-6.5 68t-15 44t-29 26.5t-61 18v66l277 14h125v-571z" />
    <glyph glyph-name="i" unicode="i" horiz-adv-x="644" 
d="M465 1391v-245h-274v245h274zM85 66q49 13 67.5 34t25 57t6.5 131v465q0 49 -4.5 79t-17 48t-34 27.5t-55.5 16.5v68l275 8h125v-711q0 -56 1.5 -86.5t4.5 -47t8.5 -29.5t14.5 -24t26 -20t45 -16v-66h-488v66z" />
    <glyph glyph-name="j" unicode="j" horiz-adv-x="619" 
d="M452 1391v-245h-274v245h274zM460 79q0 -118 -20.5 -199.5t-69 -143.5t-135.5 -108.5t-173 -70.5l-48 117q67 27 98 55t45 71.5t14 119.5v833q0 49 -4.5 79t-17 48t-34 27.5t-55.5 16.5v68l275 8h125v-921z" />
    <glyph glyph-name="k" unicode="k" horiz-adv-x="1212" 
d="M793 631l258 -382q57 -85 84 -117t47 -45.5t50 -20.5v-66h-489v66q45 9 45 47q0 26 -17.5 61.5t-68.5 110.5l-77 116q-26 39 -42 56.5t-31.5 26.5t-43.5 9h-48v-204q0 -95 6 -131t24.5 -57.5t69.5 -34.5v-66h-490v66q30 7 47 16.5t26.5 22t16.5 32t9 54t2 98.5v780
q0 86 -1.5 126.5t-6.5 68t-15 44t-29 26.5t-61 18v66l278 14h124v-843h33q35 0 55 7t41.5 22.5t66.5 56t68 72t31 55t8 45.5q0 69 -87 81v64h500v-64q-39 -6 -87 -36t-151 -126z" />
    <glyph glyph-name="l" unicode="l" horiz-adv-x="631" 
d="M460 289q0 -95 6 -131t24.5 -57.5t69.5 -34.5v-66h-490v66q30 7 47 16.5t26.5 22t16.5 32t9 54t2 98.5v780q0 86 -1.5 126.5t-6 68t-15 44t-29.5 26.5t-61 18v66l277 14h125v-1143z" />
    <glyph glyph-name="m" unicode="m" horiz-adv-x="1823" 
d="M458 856l12 -3q91 85 164 120t149 35q74 0 123 -19t83 -55.5t55 -95.5q101 94 175.5 132t155.5 38q80 0 132.5 -21t86.5 -65t49.5 -110t15.5 -158v-365q0 -44 1.5 -82.5t7.5 -61.5t16.5 -37.5t29.5 -24.5t46 -17v-66h-482v66q45 11 62 32t23.5 58t6.5 132v268
q0 90 -6 146.5t-23 88.5t-40.5 46t-61.5 14q-26 0 -48 -8t-44.5 -24.5t-38.5 -33.5t-25.5 -38t-13 -47t-3.5 -85v-326q0 -68 2.5 -104t10.5 -58t25.5 -36.5t54.5 -24.5v-66h-476v66q46 11 63.5 32t23.5 57.5t6 132.5v268q0 66 -2.5 111.5t-8.5 73.5t-16.5 49t-24 34t-32 20
t-46.5 7q-37 0 -77.5 -23t-68 -64t-27.5 -88v-387q0 -94 5.5 -131.5t23.5 -59t63 -32.5v-66h-479v66q48 13 66.5 34t25 57t6.5 131v411q0 74 -2.5 109.5t-12 57t-29 35t-67.5 23.5v68l274 8h126z" />
    <glyph glyph-name="n" unicode="n" horiz-adv-x="1236" 
d="M1173 0h-485v66q46 11 64 32.5t24.5 58t6.5 131.5v267q0 71 -3 116.5t-9.5 74.5t-18 48.5t-25.5 32t-32 18.5t-46 6q-38 0 -79 -23.5t-69 -65t-28 -88.5v-385q0 -95 6 -132t24.5 -58.5t65.5 -32.5v-66h-483v66q48 13 66.5 34t25 57t6.5 131v411q0 74 -2.5 109.5t-12 57
t-29 35t-67.5 23.5v68l274 8h126l-15 -144l12 -3q62 55 109 86.5t98.5 50t108.5 18.5q82 0 136 -23.5t87.5 -68.5t48 -110t14.5 -151v-366q0 -44 1.5 -82.5t7.5 -61.5t16.5 -37.5t29.5 -24.5t46 -17v-66z" />
    <glyph glyph-name="o" unicode="o" horiz-adv-x="1166" 
d="M571 -16q-147 0 -253.5 51.5t-166.5 165t-60 288.5q0 134 37 232t103 162t157.5 94.5t198.5 30.5q242 0 365 -127.5t123 -373.5q0 -174 -61 -291.5t-174 -174.5t-269 -57zM395 511q0 -212 47.5 -317.5t143.5 -105.5q53 0 88.5 27t57 78t30.5 122.5t9 160.5
q0 215 -47.5 321.5t-140.5 106.5q-68 0 -109 -43t-60 -129t-19 -221z" />
    <glyph glyph-name="p" unicode="p" horiz-adv-x="1223" 
d="M460 -179q0 -75 8 -106t28.5 -49t72.5 -30v-66h-498v66q47 14 65.5 31t26.5 47.5t8 106.5v875q0 71 -1.5 101t-7 51t-15.5 34.5t-29.5 23.5t-57.5 18v68l277 8h123l-15 -145l12 -3q86 83 160.5 119.5t153.5 36.5q178 0 267 -125.5t89 -375.5q0 -173 -52.5 -289.5
t-156.5 -175t-256 -58.5q-103 0 -202 26v-189zM460 328q0 -123 42.5 -181.5t131.5 -58.5q92 0 140.5 96.5t48.5 275.5q0 199 -43.5 295t-135.5 96q-45 0 -87.5 -23t-69.5 -65.5t-27 -95.5v-339z" />
    <glyph glyph-name="q" unicode="q" horiz-adv-x="1211" 
d="M763 134q-55 -52 -100 -82.5t-98 -49t-113 -18.5q-177 0 -266.5 125.5t-89.5 375.5q0 169 55 286t162.5 177t257.5 60q48 0 94 -6t86 -17t99 -34l74 57l128 -18v-1169q0 -76 8 -106.5t26.5 -47.5t65.5 -31v-66h-498v66q51 12 71.5 29t29 47.5t8.5 108.5v313zM763 664
q0 122 -41 181t-126 59q-62 0 -106.5 -44.5t-67 -128.5t-22.5 -199q0 -197 43 -293.5t134 -96.5q46 0 89 22t70 66t27 103v331z" />
    <glyph glyph-name="r" unicode="r" horiz-adv-x="945" 
d="M459 849l13 -3q73 86 150 124t167 38q61 0 128 -13v-276h-181q-17 58 -44.5 89t-73.5 31q-22 0 -48.5 -13.5t-49 -38t-32 -50t-12.5 -51.5t-3 -78v-319q0 -95 7 -133t28 -59.5t71 -30.5v-66h-493v66q48 13 66.5 34t25 57t6.5 131v411q0 74 -2.5 109.5t-12 57t-29 35
t-67.5 23.5v68l274 8h126z" />
    <glyph glyph-name="s" unicode="s" horiz-adv-x="940" 
d="M215 270q24 -91 76 -136.5t139 -45.5q75 0 113.5 34t38.5 99q0 41 -17.5 70t-58 55.5t-138.5 69.5q-55 24 -103.5 53t-84.5 65.5t-57 81.5t-21 100q0 90 52 156t148.5 101t220.5 35q73 0 143 -6t181 -26v-233h-132q-23 64 -50.5 99t-60.5 48.5t-79 13.5q-66 0 -105 -30
t-39 -84q0 -38 14 -65t50 -52.5t139 -68.5q94 -39 153 -81.5t90 -98t31 -129.5q0 -81 -30 -139.5t-84 -96.5t-129.5 -56.5t-166.5 -18.5q-165 0 -367 47v239h134z" />
    <glyph glyph-name="t" unicode="t" horiz-adv-x="748" 
d="M770 120q-88 -75 -160 -105.5t-152 -30.5q-149 0 -222.5 80.5t-73.5 243.5v559h-125v69q61 10 90 30t45 53.5t25.5 87.5t14.5 135h239v-250h285v-125h-285v-451q0 -113 10.5 -167t35.5 -79.5t62 -25.5q28 0 50 5t46.5 18t51.5 37z" />
    <glyph glyph-name="u" unicode="u" horiz-adv-x="1223" 
d="M64 992h389v-555q0 -96 6 -150t23 -85.5t41.5 -46t62.5 -14.5q37 0 78 23t69.5 64.5t28.5 88.5v386q0 73 -3 108.5t-11.5 55.5t-26.5 33.5t-59 25.5v66h390v-700q0 -76 2.5 -111t11.5 -56t29 -34.5t67 -23.5v-67l-272 -9h-121l9 144l-12 3q-93 -86 -166 -120t-147 -34
q-106 0 -169.5 39.5t-91.5 116t-28 197.5v366q0 56 -1.5 86t-4.5 46.5t-8.5 30t-15 24.5t-26 20t-44.5 16v66z" />
    <glyph glyph-name="v" unicode="v" horiz-adv-x="1087" 
d="M518 992v-66q-47 -9 -69 -27t-22 -54q0 -48 26 -125l144 -437l159 383q20 48 30 84.5t10 71.5q0 42 -24 69.5t-68 34.5v66h389v-67q-29 -9 -46.5 -22t-33 -34t-37.5 -62.5t-60 -125.5l-312 -691h-189l-264 761q-27 79 -44 108.5t-37.5 45t-50.5 21.5v66h499z" />
    <glyph glyph-name="w" unicode="w" horiz-adv-x="1635" 
d="M1001 -10l-188 645l-219 -645h-202l-243 761q-22 70 -37 101.5t-34 49t-51 24.5v66h489v-66q-47 -8 -70.5 -28.5t-23.5 -57.5q0 -25 8 -55.5t18 -64.5l125 -415l230 687h186l194 -687l131 361q20 54 27.5 91t7.5 65q0 42 -24 69.5t-68 34.5v66h377v-67q-30 -9 -46.5 -21
t-31 -33t-33 -61t-53.5 -129l-269 -691h-200z" />
    <glyph glyph-name="x" unicode="x" horiz-adv-x="1076" 
d="M660 548l234 -332q33 -47 58.5 -77.5t50 -47.5t53.5 -25v-66h-487v66q62 7 62 52q0 12 -3 22.5t-9 21t-24 36.5l-113 162l-105 -129q-34 -41 -42.5 -60t-8.5 -43t18 -41t57 -21v-66h-385v66q43 9 86.5 44t105.5 106l209 237l-235 332q-22 32 -38 52.5t-33 39t-30.5 29
t-25 15t-22.5 5.5v66h484v-66q-63 -13 -63 -56q0 -17 9 -35.5t29 -46.5l103 -147l102 127q24 30 33.5 50.5t9.5 42.5q0 28 -20.5 45.5t-55.5 19.5v66h381v-66q-45 -11 -83 -42.5t-110 -118.5z" />
    <glyph glyph-name="y" unicode="y" horiz-adv-x="1087" 
d="M590 -45q-65 -145 -122.5 -227.5t-124 -123.5t-165.5 -41q-75 0 -140 19v229h112q13 -47 32.5 -64.5t54.5 -17.5q38 0 68.5 21t69 78.5t94.5 171.5h-57l-261 751q-28 79 -44.5 108.5t-37 45t-50.5 21.5v66h499v-66q-47 -9 -69 -27t-22 -54q0 -48 26 -125l144 -437
l159 383q20 48 30 84.5t10 71.5q0 42 -24 69.5t-68 34.5v66h389v-67q-29 -9 -46.5 -22t-33 -34t-37.5 -62.5t-60 -125.5z" />
    <glyph glyph-name="z" unicode="z" horiz-adv-x="981" 
d="M403 106h211q45 0 76.5 19t57 66t46.5 131h122v-322h-850v66l512 820h-199q-48 0 -77 -16t-52.5 -54t-54.5 -128h-122v304h842v-66z" />
    <glyph glyph-name="agrave" unicode="&#xe0;" horiz-adv-x="1096" 
d="M677 131l-15 5q-82 -80 -159.5 -116t-164.5 -36q-86 0 -149.5 31.5t-96 87.5t-32.5 129q0 147 144.5 231.5t438.5 106.5v95q0 93 -21 143.5t-54 71t-79 20.5t-79.5 -16t-60.5 -60.5t-40 -123.5h-189v182q92 41 153 63t120.5 36.5t106.5 20.5t94 6q121 0 193.5 -32
t108.5 -104t36 -199v-390q0 -66 3 -102t9.5 -53.5t16.5 -28t24.5 -17t54.5 -16.5v-66h-372zM644 472q-155 -4 -229.5 -58t-74.5 -158q0 -62 34 -94.5t94 -32.5q46 0 87 24.5t65 65.5t24 87v166zM477 1475l218 -322l-80 -66l-347 322v66h209z" />
    <glyph glyph-name="aacute" unicode="&#xe1;" horiz-adv-x="1096" 
d="M677 131l-15 5q-82 -80 -159.5 -116t-164.5 -36q-86 0 -149.5 31.5t-96 87.5t-32.5 129q0 147 144.5 231.5t438.5 106.5v95q0 93 -21 143.5t-54 71t-79 20.5t-79.5 -16t-60.5 -60.5t-40 -123.5h-189v182q92 41 153 63t120.5 36.5t106.5 20.5t94 6q121 0 193.5 -32
t108.5 -104t36 -199v-390q0 -66 3 -102t9.5 -53.5t16.5 -28t24.5 -17t54.5 -16.5v-66h-372zM644 472q-155 -4 -229.5 -58t-74.5 -158q0 -62 34 -94.5t94 -32.5q46 0 87 24.5t65 65.5t24 87v166zM818 1475v-66l-347 -322l-80 66l218 322h209z" />
    <glyph glyph-name="acircumflex" unicode="&#xe2;" horiz-adv-x="1096" 
d="M677 131l-15 5q-82 -80 -159.5 -116t-164.5 -36q-86 0 -149.5 31.5t-96 87.5t-32.5 129q0 147 144.5 231.5t438.5 106.5v95q0 93 -21 143.5t-54 71t-79 20.5t-79.5 -16t-60.5 -60.5t-40 -123.5h-189v182q92 41 153 63t120.5 36.5t106.5 20.5t94 6q121 0 193.5 -32
t108.5 -104t36 -199v-390q0 -66 3 -102t9.5 -53.5t16.5 -28t24.5 -17t54.5 -16.5v-66h-372zM644 472q-155 -4 -229.5 -58t-74.5 -158q0 -62 34 -94.5t94 -32.5q46 0 87 24.5t65 65.5t24 87v166zM638 1468l206 -314l-77 -66l-217 218h-11l-220 -218l-77 66l222 314h174z" />
    <glyph glyph-name="atilde" unicode="&#xe3;" horiz-adv-x="1096" 
d="M677 131l-15 5q-82 -80 -159.5 -116t-164.5 -36q-86 0 -149.5 31.5t-96 87.5t-32.5 129q0 147 144.5 231.5t438.5 106.5v95q0 93 -21 143.5t-54 71t-79 20.5t-79.5 -16t-60.5 -60.5t-40 -123.5h-189v182q92 41 153 63t120.5 36.5t106.5 20.5t94 6q121 0 193.5 -32
t108.5 -104t36 -199v-390q0 -66 3 -102t9.5 -53.5t16.5 -28t24.5 -17t54.5 -16.5v-66h-372zM644 472q-155 -4 -229.5 -58t-74.5 -158q0 -62 34 -94.5t94 -32.5q46 0 87 24.5t65 65.5t24 87v166zM801 1402l94 -41q-57 -118 -110 -174.5t-109 -56.5q-37 0 -67.5 10.5
t-87.5 49.5q-32 22 -49 31.5t-33.5 14.5t-33.5 5q-23 0 -40.5 -8.5t-38 -33t-43.5 -69.5l-93 41q47 91 78.5 136t66.5 70t78 25q24 0 45.5 -5t41.5 -15.5t57 -35.5t54.5 -35t34 -15t38.5 -5q35 0 61.5 26.5t55.5 84.5z" />
    <glyph glyph-name="adieresis" unicode="&#xe4;" horiz-adv-x="1096" 
d="M677 131l-15 5q-82 -80 -159.5 -116t-164.5 -36q-86 0 -149.5 31.5t-96 87.5t-32.5 129q0 147 144.5 231.5t438.5 106.5v95q0 93 -21 143.5t-54 71t-79 20.5t-79.5 -16t-60.5 -60.5t-40 -123.5h-189v182q92 41 153 63t120.5 36.5t106.5 20.5t94 6q121 0 193.5 -32
t108.5 -104t36 -199v-390q0 -66 3 -102t9.5 -53.5t16.5 -28t24.5 -17t54.5 -16.5v-66h-372zM644 472q-155 -4 -229.5 -58t-74.5 -158q0 -62 34 -94.5t94 -32.5q46 0 87 24.5t65 65.5t24 87v166zM465 1379v-220h-209v220h209zM831 1379v-220h-209v220h209z" />
    <glyph glyph-name="amacron" unicode="&#x101;" horiz-adv-x="1096" 
d="M677 131l-15 5q-82 -80 -159.5 -116t-164.5 -36q-86 0 -149.5 31.5t-96 87.5t-32.5 129q0 147 144.5 231.5t438.5 106.5v95q0 93 -21 143.5t-54 71t-79 20.5t-79.5 -16t-60.5 -60.5t-40 -123.5h-189v182q92 41 153 63t120.5 36.5t106.5 20.5t94 6q121 0 193.5 -32
t108.5 -104t36 -199v-390q0 -66 3 -102t9.5 -53.5t16.5 -28t24.5 -17t54.5 -16.5v-66h-372zM644 472q-155 -4 -229.5 -58t-74.5 -158q0 -62 34 -94.5t94 -32.5q46 0 87 24.5t65 65.5t24 87v166zM825 1192h-564v154h564v-154z" />
    <glyph glyph-name="abreve" unicode="&#x103;" horiz-adv-x="1096" 
d="M677 131l-15 5q-82 -80 -159.5 -116t-164.5 -36q-86 0 -149.5 31.5t-96 87.5t-32.5 129q0 147 144.5 231.5t438.5 106.5v95q0 93 -21 143.5t-54 71t-79 20.5t-79.5 -16t-60.5 -60.5t-40 -123.5h-189v182q92 41 153 63t120.5 36.5t106.5 20.5t94 6q121 0 193.5 -32
t108.5 -104t36 -199v-390q0 -66 3 -102t9.5 -53.5t16.5 -28t24.5 -17t54.5 -16.5v-66h-372zM644 472q-155 -4 -229.5 -58t-74.5 -158q0 -62 34 -94.5t94 -32.5q46 0 87 24.5t65 65.5t24 87v166zM865 1406q-34 -139 -112.5 -210t-212.5 -71q-121 0 -200.5 72t-108.5 209
l97 30q34 -78 83.5 -114.5t132.5 -36.5q90 0 142 37.5t82 113.5z" />
    <glyph glyph-name="aring" unicode="&#xe5;" horiz-adv-x="1096" 
d="M677 131l-15 5q-82 -80 -159.5 -116t-164.5 -36q-86 0 -149.5 31.5t-96 87.5t-32.5 129q0 147 144.5 231.5t438.5 106.5v95q0 93 -21 143.5t-54 71t-79 20.5t-79.5 -16t-60.5 -60.5t-40 -123.5h-189v182q92 41 153 63t120.5 36.5t106.5 20.5t94 6q121 0 193.5 -32
t108.5 -104t36 -199v-390q0 -66 3 -102t9.5 -53.5t16.5 -28t24.5 -17t54.5 -16.5v-66h-372zM644 472q-155 -4 -229.5 -58t-74.5 -158q0 -62 34 -94.5t94 -32.5q46 0 87 24.5t65 65.5t24 87v166zM538 1084q-113 0 -172 53t-59 154q0 70 31.5 118.5t87 72t125.5 23.5
q113 0 171 -52.5t58 -152.5q0 -105 -63.5 -160.5t-178.5 -55.5zM427 1298q0 -65 30 -101t89 -36q55 0 84.5 33.5t29.5 94.5q0 67 -31 103t-85 36q-58 0 -87.5 -34t-29.5 -96z" />
    <glyph glyph-name="aringacute" unicode="&#x1fb;" horiz-adv-x="1096" 
d="M677 131l-15 5q-82 -80 -159.5 -116t-164.5 -36q-86 0 -149.5 31.5t-96 87.5t-32.5 129q0 147 144.5 231.5t438.5 106.5v95q0 93 -21 143.5t-54 71t-79 20.5t-79.5 -16t-60.5 -60.5t-40 -123.5h-189v182q92 41 153 63t120.5 36.5t106.5 20.5t94 6q121 0 193.5 -32
t108.5 -104t36 -199v-390q0 -66 3 -102t9.5 -53.5t16.5 -28t24.5 -17t54.5 -16.5v-66h-372zM644 472q-155 -4 -229.5 -58t-74.5 -158q0 -62 34 -94.5t94 -32.5q46 0 87 24.5t65 65.5t24 87v166zM538 1084q-113 0 -172 53t-59 154q0 70 31.5 118.5t87 72t125.5 23.5
q113 0 171 -52.5t58 -152.5q0 -105 -63.5 -160.5t-178.5 -55.5zM427 1298q0 -65 30 -101t89 -36q55 0 84.5 33.5t29.5 94.5q0 67 -31 103t-85 36q-58 0 -87.5 -34t-29.5 -96zM801 1905v-66l-347 -322l-80 66l218 322h209z" />
    <glyph glyph-name="aogonek" unicode="&#x105;" horiz-adv-x="1096" 
d="M677 131l-15 5q-82 -80 -159.5 -116t-164.5 -36q-86 0 -149.5 31.5t-96 87.5t-32.5 129q0 147 144.5 231.5t438.5 106.5v95q0 93 -21 143.5t-54 71t-79 20.5t-79.5 -16t-60.5 -60.5t-40 -123.5h-189v182q92 41 153 63t120.5 36.5t106.5 20.5t94 6q121 0 193.5 -32
t108.5 -104t36 -199v-390q0 -66 3 -102t9.5 -53.5t16.5 -28t24.5 -17t54.5 -16.5v-66h-109q-58 -54 -87.5 -112t-29.5 -111q0 -49 23.5 -74t64.5 -25q30 0 52.5 10t40.5 22l38 -86q-36 -25 -82 -42.5t-98 -17.5q-40 0 -77.5 9.5t-66.5 30t-46.5 55.5t-17.5 85
q0 69 43.5 135.5t126.5 120.5h-147zM644 472q-155 -4 -229.5 -58t-74.5 -158q0 -62 34 -94.5t94 -32.5q46 0 87 24.5t65 65.5t24 87v166z" />
    <glyph glyph-name="ae" unicode="&#xe6;" horiz-adv-x="1627" 
d="M1531 182q-101 -107 -204 -152.5t-234 -45.5q-133 0 -229.5 45.5t-152.5 136.5h-10q-77 -91 -167.5 -136.5t-195.5 -45.5q-86 0 -149.5 31.5t-96 87.5t-32.5 129q0 147 144.5 231.5t438.5 106.5v100q0 94 -22.5 143t-54 68t-78.5 19q-45 0 -78.5 -16.5t-60.5 -61
t-40 -122.5h-189v182q92 41 153.5 63t120.5 36.5t106 20.5t94 6q95 0 150 -26.5t91 -79.5h10q58 52 125 79t151 27q91 0 159.5 -21t117.5 -58.5t81 -90.5q38 -63 57 -144q20 -83 21 -201h-634q1 -181 64.5 -266.5t193.5 -85.5q76 0 137 28.5t132 100.5zM1261 601
q-4 153 -40 228t-116 75q-77 0 -122.5 -78t-54.5 -225h333zM644 472q-304 -8 -304 -213q0 -64 32.5 -97t98.5 -33q44 0 84.5 24.5t64.5 65.5t24 87v166z" />
    <glyph glyph-name="aeacute" unicode="&#x1fd;" horiz-adv-x="1627" 
d="M1531 182q-101 -107 -204 -152.5t-234 -45.5q-133 0 -229.5 45.5t-152.5 136.5h-10q-77 -91 -167.5 -136.5t-195.5 -45.5q-86 0 -149.5 31.5t-96 87.5t-32.5 129q0 147 144.5 231.5t438.5 106.5v100q0 94 -22.5 143t-54 68t-78.5 19q-45 0 -78.5 -16.5t-60.5 -61
t-40 -122.5h-189v182q92 41 153.5 63t120.5 36.5t106 20.5t94 6q95 0 150 -26.5t91 -79.5h10q58 52 125 79t151 27q91 0 159.5 -21t117.5 -58.5t81 -90.5q38 -63 57 -144q20 -83 21 -201h-634q1 -181 64.5 -266.5t193.5 -85.5q76 0 137 28.5t132 100.5zM1261 601
q-4 153 -40 228t-116 75q-77 0 -122.5 -78t-54.5 -225h333zM644 472q-304 -8 -304 -213q0 -64 32.5 -97t98.5 -33q44 0 84.5 24.5t64.5 65.5t24 87v166zM1089 1475v-66l-347 -322l-80 66l218 322h209z" />
    <glyph glyph-name="cacute" unicode="&#x107;" horiz-adv-x="960" 
d="M848 256l77 -93q-98 -96 -189.5 -137.5t-199.5 -41.5q-217 0 -331 127.5t-114 370.5q0 164 62.5 283.5t179.5 181t268 61.5q81 0 161.5 -11.5t146.5 -31.5v-241h-198q-15 94 -45 137t-86 43q-37 0 -70.5 -18.5t-59 -64t-40.5 -122t-15 -193.5t22 -197.5t71 -124
t129 -43.5q58 0 109.5 25t121.5 90zM809 1475v-66l-347 -322l-80 66l218 322h209z" />
    <glyph glyph-name="ccircumflex" unicode="&#x109;" horiz-adv-x="960" 
d="M848 256l77 -93q-98 -96 -189.5 -137.5t-199.5 -41.5q-217 0 -331 127.5t-114 370.5q0 164 62.5 283.5t179.5 181t268 61.5q81 0 161.5 -11.5t146.5 -31.5v-241h-198q-15 94 -45 137t-86 43q-37 0 -70.5 -18.5t-59 -64t-40.5 -122t-15 -193.5t22 -197.5t71 -124
t129 -43.5q58 0 109.5 25t121.5 90zM624 1468l206 -314l-77 -66l-217 218h-11l-220 -218l-77 66l222 314h174z" />
    <glyph glyph-name="ccaron" unicode="&#x10d;" horiz-adv-x="960" 
d="M848 256l77 -93q-98 -96 -189.5 -137.5t-199.5 -41.5q-217 0 -331 127.5t-114 370.5q0 164 62.5 283.5t179.5 181t268 61.5q81 0 161.5 -11.5t146.5 -31.5v-241h-198q-15 94 -45 137t-86 43q-37 0 -70.5 -18.5t-59 -64t-40.5 -122t-15 -193.5t22 -197.5t71 -124
t129 -43.5q58 0 109.5 25t121.5 90zM434 1102l-206 314l77 66l217 -218h11l220 218l77 -66l-222 -314h-174z" />
    <glyph glyph-name="cdotaccent" unicode="&#x10b;" horiz-adv-x="960" 
d="M848 256l77 -93q-98 -96 -189.5 -137.5t-199.5 -41.5q-217 0 -331 127.5t-114 370.5q0 164 62.5 283.5t179.5 181t268 61.5q81 0 161.5 -11.5t146.5 -31.5v-241h-198q-15 94 -45 137t-86 43q-37 0 -70.5 -18.5t-59 -64t-40.5 -122t-15 -193.5t22 -197.5t71 -124
t129 -43.5q58 0 109.5 25t121.5 90zM666 1391v-245h-274v245h274z" />
    <glyph glyph-name="ccedilla" unicode="&#xe7;" horiz-adv-x="960" 
d="M848 256l77 -93q-45 -43 -89 -77t-93 -57l-140 -97q17 -23 25.5 -56.5t8.5 -72.5q0 -102 -91.5 -163.5t-257.5 -69.5l-16 95q82 12 119.5 40t37.5 87q0 37 -5 63v43l129 86h-17q-217 0 -331 127.5t-114 370.5q0 164 62.5 283.5t179.5 181t268 61.5q81 0 161.5 -11.5
t146.5 -31.5v-241h-198q-15 94 -45 137t-86 43q-37 0 -70.5 -18.5t-59 -64t-40.5 -122t-15 -193.5t22 -197.5t71 -124t129 -43.5q58 0 109.5 25t121.5 90z" />
    <glyph glyph-name="dcaron" unicode="&#x10f;" horiz-adv-x="1484" 
d="M1052 292q0 -76 2.5 -111t11.5 -56t29 -34.5t67 -23.5v-67l-272 -9h-121l9 144l-15 1q-72 -73 -151.5 -112.5t-152.5 -39.5q-182 0 -272.5 125t-90.5 376q0 170 55 286.5t163.5 176.5t261.5 60q44 0 86.5 -5.5t100.5 -21.5v91q0 107 -3 151.5t-12.5 68t-28.5 36.5t-69 23
v67l277 14h125v-1140zM763 664q0 122 -41 181t-126 59q-62 0 -106.5 -44.5t-67 -128.5t-22.5 -199q0 -197 43 -294t134 -97q43 0 85.5 21.5t71.5 66t29 102.5v333zM1430 1431q23 -66 23 -129q0 -83 -48 -154t-168 -162l-64 63q44 48 61.5 98.5t17.5 133.5q0 32 -2.5 60
t-13.5 90h194z" />
    <glyph glyph-name="dcroat" unicode="&#x111;" horiz-adv-x="1223" 
d="M1185 1121h-133v-829q0 -76 2.5 -111t11.5 -56t29 -34.5t67 -23.5v-67l-272 -9h-121l9 144l-15 1q-72 -73 -151.5 -112.5t-152.5 -39.5q-182 0 -272.5 125t-90.5 376q0 170 55 286.5t163.5 176.5t261.5 60q44 0 86.5 -5.5t100.5 -21.5v140h-348v112h347q-3 48 -12.5 69
t-29 31.5t-70.5 18.5v66l277 14h125v-199h133v-112zM763 664q0 122 -41 181t-126 59q-62 0 -106.5 -44.5t-67 -128.5t-22.5 -199q0 -197 43 -294t134 -97q43 0 85.5 21.5t71.5 66t29 102.5v333z" />
    <glyph glyph-name="egrave" unicode="&#xe8;" horiz-adv-x="1087" 
d="M991 182q-102 -108 -202 -153t-230 -45q-233 0 -350.5 127.5t-117.5 378.5q0 162 60.5 279.5t171.5 178t258 60.5q91 0 159.5 -21t117.5 -58.5t81 -90.5q38 -63 57 -144q20 -83 21 -201h-634q1 -181 64.5 -266.5t193.5 -85.5q76 0 137 28.5t132 100.5zM721 601
q-4 153 -40 228t-116 75q-77 0 -122.5 -78t-54.5 -225h333zM492 1475l218 -322l-80 -66l-347 322v66h209z" />
    <glyph glyph-name="eacute" unicode="&#xe9;" horiz-adv-x="1087" 
d="M991 182q-102 -108 -202 -153t-230 -45q-233 0 -350.5 127.5t-117.5 378.5q0 162 60.5 279.5t171.5 178t258 60.5q91 0 159.5 -21t117.5 -58.5t81 -90.5q38 -63 57 -144q20 -83 21 -201h-634q1 -181 64.5 -266.5t193.5 -85.5q76 0 137 28.5t132 100.5zM721 601
q-4 153 -40 228t-116 75q-77 0 -122.5 -78t-54.5 -225h333zM836 1475v-66l-347 -322l-80 66l218 322h209z" />
    <glyph glyph-name="ecircumflex" unicode="&#xea;" horiz-adv-x="1087" 
d="M991 182q-102 -108 -202 -153t-230 -45q-233 0 -350.5 127.5t-117.5 378.5q0 162 60.5 279.5t171.5 178t258 60.5q91 0 159.5 -21t117.5 -58.5t81 -90.5q38 -63 57 -144q20 -83 21 -201h-634q1 -181 64.5 -266.5t193.5 -85.5q76 0 137 28.5t132 100.5zM721 601
q-4 153 -40 228t-116 75q-77 0 -122.5 -78t-54.5 -225h333zM653 1468l206 -314l-77 -66l-217 218h-11l-220 -218l-77 66l222 314h174z" />
    <glyph glyph-name="ecaron" unicode="&#x11b;" horiz-adv-x="1087" 
d="M991 182q-102 -108 -202 -153t-230 -45q-233 0 -350.5 127.5t-117.5 378.5q0 162 60.5 279.5t171.5 178t258 60.5q91 0 159.5 -21t117.5 -58.5t81 -90.5q38 -63 57 -144q20 -83 21 -201h-634q1 -181 64.5 -266.5t193.5 -85.5q76 0 137 28.5t132 100.5zM721 601
q-4 153 -40 228t-116 75q-77 0 -122.5 -78t-54.5 -225h333zM463 1102l-206 314l77 66l217 -218h11l220 218l77 -66l-222 -314h-174z" />
    <glyph glyph-name="edieresis" unicode="&#xeb;" horiz-adv-x="1087" 
d="M991 182q-102 -108 -202 -153t-230 -45q-233 0 -350.5 127.5t-117.5 378.5q0 162 60.5 279.5t171.5 178t258 60.5q91 0 159.5 -21t117.5 -58.5t81 -90.5q38 -63 57 -144q20 -83 21 -201h-634q1 -181 64.5 -266.5t193.5 -85.5q76 0 137 28.5t132 100.5zM721 601
q-4 153 -40 228t-116 75q-77 0 -122.5 -78t-54.5 -225h333zM479 1379v-220h-209v220h209zM845 1379v-220h-209v220h209z" />
    <glyph glyph-name="emacron" unicode="&#x113;" horiz-adv-x="1087" 
d="M991 182q-102 -108 -202 -153t-230 -45q-233 0 -350.5 127.5t-117.5 378.5q0 162 60.5 279.5t171.5 178t258 60.5q91 0 159.5 -21t117.5 -58.5t81 -90.5q38 -63 57 -144q20 -83 21 -201h-634q1 -181 64.5 -266.5t193.5 -85.5q76 0 137 28.5t132 100.5zM721 601
q-4 153 -40 228t-116 75q-77 0 -122.5 -78t-54.5 -225h333zM840 1192h-564v154h564v-154z" />
    <glyph glyph-name="ebreve" unicode="&#x115;" horiz-adv-x="1087" 
d="M991 182q-102 -108 -202 -153t-230 -45q-233 0 -350.5 127.5t-117.5 378.5q0 162 60.5 279.5t171.5 178t258 60.5q91 0 159.5 -21t117.5 -58.5t81 -90.5q38 -63 57 -144q20 -83 21 -201h-634q1 -181 64.5 -266.5t193.5 -85.5q76 0 137 28.5t132 100.5zM721 601
q-4 153 -40 228t-116 75q-77 0 -122.5 -78t-54.5 -225h333zM875 1410q-34 -139 -112.5 -210t-212.5 -71q-121 0 -200.5 72t-108.5 209l97 30q34 -78 83.5 -114.5t132.5 -36.5q90 0 142 37.5t82 113.5z" />
    <glyph glyph-name="edotaccent" unicode="&#x117;" horiz-adv-x="1087" 
d="M991 182q-102 -108 -202 -153t-230 -45q-233 0 -350.5 127.5t-117.5 378.5q0 162 60.5 279.5t171.5 178t258 60.5q91 0 159.5 -21t117.5 -58.5t81 -90.5q38 -63 57 -144q20 -83 21 -201h-634q1 -181 64.5 -266.5t193.5 -85.5q76 0 137 28.5t132 100.5zM721 601
q-4 153 -40 228t-116 75q-77 0 -122.5 -78t-54.5 -225h333zM695 1391v-245h-274v245h274z" />
    <glyph glyph-name="eogonek" unicode="&#x119;" horiz-adv-x="1087" 
d="M991 182q-38 -40 -77 -73q-30 -29 -62.5 -65.5t-59 -79.5t-43 -90t-16.5 -97q0 -49 23.5 -74t64.5 -25q30 0 52.5 10t40.5 22l38 -86q-36 -25 -82 -42.5t-98 -17.5q-40 0 -77.5 9.5t-66.5 30t-46.5 55.5t-17.5 85q0 133 149 258q-69 -18 -154 -18q-233 0 -350.5 127.5
t-117.5 378.5q0 162 60.5 279.5t171.5 178t258 60.5q91 0 159.5 -21t117.5 -58.5t81 -90.5q38 -63 57 -144q20 -83 21 -201h-634q1 -181 64.5 -266.5t193.5 -85.5q76 0 137 28.5t132 100.5zM721 601q-4 153 -40 228t-116 75q-77 0 -122.5 -78t-54.5 -225h333z" />
    <glyph glyph-name="gcircumflex" unicode="&#x11d;" horiz-adv-x="1065" 
d="M1053 858l-171 19l-4 -11q28 -28 46.5 -76.5t18.5 -116.5q0 -174 -105.5 -264t-310.5 -90q-99 0 -162 18q-50 -45 -50 -97q0 -30 12.5 -46t42.5 -24.5t85 -8.5h248q167 0 250 -65t83 -202q0 -107 -60.5 -184t-173.5 -117.5t-268 -40.5q-113 0 -205 10t-157 36.5
t-100.5 72.5t-35.5 117q0 57 36 105t101 82q-42 30 -61 69t-19 96q0 47 19.5 88t52 74.5t84.5 73.5q-78 44 -118 115.5t-40 167.5q0 93 33.5 159.5t92 108.5t138 61.5t171.5 19.5q51 0 90 -5t76 -11h361v-134zM378 671q0 -126 35.5 -187.5t111.5 -61.5q69 0 105.5 57
t36.5 174q0 123 -35.5 187.5t-108.5 64.5q-74 0 -109.5 -57.5t-35.5 -176.5zM342 -64q-36 -28 -54.5 -61t-18.5 -76q0 -72 62.5 -106.5t197.5 -34.5q126 0 191.5 42t65.5 118q0 34 -12 58t-47 40t-99 16h-172q-73 0 -114 4zM630 1468l206 -314l-77 -66l-217 218h-11
l-220 -218l-77 66l222 314h174z" />
    <glyph glyph-name="gbreve" unicode="&#x11f;" horiz-adv-x="1065" 
d="M1053 858l-171 19l-4 -11q28 -28 46.5 -76.5t18.5 -116.5q0 -174 -105.5 -264t-310.5 -90q-99 0 -162 18q-50 -45 -50 -97q0 -30 12.5 -46t42.5 -24.5t85 -8.5h248q167 0 250 -65t83 -202q0 -107 -60.5 -184t-173.5 -117.5t-268 -40.5q-113 0 -205 10t-157 36.5
t-100.5 72.5t-35.5 117q0 57 36 105t101 82q-42 30 -61 69t-19 96q0 47 19.5 88t52 74.5t84.5 73.5q-78 44 -118 115.5t-40 167.5q0 93 33.5 159.5t92 108.5t138 61.5t171.5 19.5q51 0 90 -5t76 -11h361v-134zM378 671q0 -126 35.5 -187.5t111.5 -61.5q69 0 105.5 57
t36.5 174q0 123 -35.5 187.5t-108.5 64.5q-74 0 -109.5 -57.5t-35.5 -176.5zM342 -64q-36 -28 -54.5 -61t-18.5 -76q0 -72 62.5 -106.5t197.5 -34.5q126 0 191.5 42t65.5 118q0 34 -12 58t-47 40t-99 16h-172q-73 0 -114 4zM852 1410q-34 -139 -112.5 -210t-212.5 -71
q-121 0 -200.5 72t-108.5 209l97 30q34 -78 83.5 -114.5t132.5 -36.5q90 0 142 37.5t82 113.5z" />
    <glyph glyph-name="gdotaccent" unicode="&#x121;" horiz-adv-x="1065" 
d="M1053 858l-171 19l-4 -11q28 -28 46.5 -76.5t18.5 -116.5q0 -174 -105.5 -264t-310.5 -90q-99 0 -162 18q-50 -45 -50 -97q0 -30 12.5 -46t42.5 -24.5t85 -8.5h248q167 0 250 -65t83 -202q0 -107 -60.5 -184t-173.5 -117.5t-268 -40.5q-113 0 -205 10t-157 36.5
t-100.5 72.5t-35.5 117q0 57 36 105t101 82q-42 30 -61 69t-19 96q0 47 19.5 88t52 74.5t84.5 73.5q-78 44 -118 115.5t-40 167.5q0 93 33.5 159.5t92 108.5t138 61.5t171.5 19.5q51 0 90 -5t76 -11h361v-134zM378 671q0 -126 35.5 -187.5t111.5 -61.5q69 0 105.5 57
t36.5 174q0 123 -35.5 187.5t-108.5 64.5q-74 0 -109.5 -57.5t-35.5 -176.5zM342 -64q-36 -28 -54.5 -61t-18.5 -76q0 -72 62.5 -106.5t197.5 -34.5q126 0 191.5 42t65.5 118q0 34 -12 58t-47 40t-99 16h-172q-73 0 -114 4zM672 1391v-245h-274v245h274z" />
    <glyph glyph-name="uni0123" unicode="&#x123;" horiz-adv-x="1065" 
d="M1053 858l-171 19l-4 -11q28 -28 46.5 -76.5t18.5 -116.5q0 -174 -105.5 -264t-310.5 -90q-99 0 -162 18q-50 -45 -50 -97q0 -30 12.5 -46t42.5 -24.5t85 -8.5h248q167 0 250 -65t83 -202q0 -107 -60.5 -184t-173.5 -117.5t-268 -40.5q-113 0 -205 10t-157 36.5
t-100.5 72.5t-35.5 117q0 57 36 105t101 82q-42 30 -61 69t-19 96q0 47 19.5 88t52 74.5t84.5 73.5q-78 44 -118 115.5t-40 167.5q0 93 33.5 159.5t92 108.5t138 61.5t171.5 19.5q51 0 90 -5t76 -11h361v-134zM378 671q0 -126 35.5 -187.5t111.5 -61.5q69 0 105.5 57
t36.5 174q0 123 -35.5 187.5t-108.5 64.5q-74 0 -109.5 -57.5t-35.5 -176.5zM342 -64q-36 -28 -54.5 -61t-18.5 -76q0 -72 62.5 -106.5t197.5 -34.5q126 0 191.5 42t65.5 118q0 34 -12 58t-47 40t-99 16h-172q-73 0 -114 4zM442 1119q-23 61 -23 120q0 56 22.5 102t70 93.5
t133.5 110.5l62 -73q-48 -46 -69 -93.5t-21 -121.5q0 -49 12 -110z" />
    <glyph glyph-name="hcircumflex" unicode="&#x125;" horiz-adv-x="1222" 
d="M464 860q91 81 162.5 114.5t146.5 33.5q110 0 170 -40.5t87.5 -116.5t27.5 -197v-365q0 -44 1.5 -82.5t7.5 -61.5t16.5 -37.5t29.5 -24.5t46 -17v-66h-485v66q47 11 64.5 32t24 58t6.5 132v261q0 100 -6.5 155.5t-22 86t-40 45.5t-64.5 15q-38 0 -79.5 -23.5t-69 -64
t-27.5 -86.5v-388q0 -56 1.5 -86.5t4.5 -47t8.5 -29.5t14.5 -24t26 -20t45 -16v-66h-490v66q30 7 47 16.5t26.5 22t16.5 32t9 54t2 98.5v780q0 86 -1.5 126.5t-6.5 68t-15 44t-29 26.5t-61 18v66l277 14h125v-571zM699 1800l226 -251l-71 -67l-238 167h-11l-240 -167l-69 67
l229 251h174z" />
    <glyph glyph-name="hbar" unicode="&#x127;" horiz-adv-x="1222" 
d="M38 1213h132q-1 69 -21 95.5t-91 34.5v75l277 14h125v-219h348v-112h-348v-281l4 -1q166 148 309 148q153 0 219 -85t66 -269v-324q0 -140 19.5 -173.5t81.5 -49.5v-66h-485v66q62 15 78.5 54.5t16.5 167.5v220q0 210 -35 256t-98 46q-61 0 -118.5 -53t-57.5 -121v-347
q0 -139 19.5 -173t80.5 -50v-66h-490v66q67 17 84 55t17 168v812h-133v112z" />
    <glyph glyph-name="igrave" unicode="&#xec;" horiz-adv-x="644" 
d="M85 66q49 13 67.5 34t25 57t6.5 131v465q0 49 -4.5 79t-17 48t-34 27.5t-55.5 16.5v68l275 8h125v-711q0 -56 1.5 -86.5t4.5 -47t8.5 -29.5t14.5 -24t26 -20t45 -16v-66h-488v66zM257 1475l218 -322l-80 -66l-347 322v66h209z" />
    <glyph glyph-name="iacute" unicode="&#xed;" horiz-adv-x="644" 
d="M85 66q49 13 67.5 34t25 57t6.5 131v465q0 49 -4.5 79t-17 48t-34 27.5t-55.5 16.5v68l275 8h125v-711q0 -56 1.5 -86.5t4.5 -47t8.5 -29.5t14.5 -24t26 -20t45 -16v-66h-488v66zM597 1475v-66l-347 -322l-80 66l218 322h209z" />
    <glyph glyph-name="icircumflex" unicode="&#xee;" horiz-adv-x="644" 
d="M85 66q49 13 67.5 34t25 57t6.5 131v465q0 49 -4.5 79t-17 48t-34 27.5t-55.5 16.5v68l275 8h125v-711q0 -56 1.5 -86.5t4.5 -47t8.5 -29.5t14.5 -24t26 -20t45 -16v-66h-488v66zM417 1468l206 -314l-77 -66l-217 218h-11l-220 -218l-77 66l222 314h174z" />
    <glyph glyph-name="itilde" unicode="&#x129;" horiz-adv-x="644" 
d="M85 66q49 13 67.5 34t25 57t6.5 131v465q0 49 -4.5 79t-17 48t-34 27.5t-55.5 16.5v68l275 8h125v-711q0 -56 1.5 -86.5t4.5 -47t8.5 -29.5t14.5 -24t26 -20t45 -16v-66h-488v66zM581 1402l94 -41q-57 -118 -110 -174.5t-109 -56.5q-37 0 -67.5 10.5t-87.5 49.5
q-32 22 -49 31.5t-33.5 14.5t-33.5 5q-23 0 -40.5 -8.5t-38 -33t-43.5 -69.5l-93 41q47 91 78.5 136t66.5 70t78 25q24 0 45.5 -5t41.5 -15.5t57 -35.5t54.5 -35t34 -15t38.5 -5q35 0 61.5 26.5t55.5 84.5z" />
    <glyph glyph-name="idieresis" unicode="&#xef;" horiz-adv-x="644" 
d="M85 66q49 13 67.5 34t25 57t6.5 131v465q0 49 -4.5 79t-17 48t-34 27.5t-55.5 16.5v68l275 8h125v-711q0 -56 1.5 -86.5t4.5 -47t8.5 -29.5t14.5 -24t26 -20t45 -16v-66h-488v66zM244 1379v-220h-209v220h209zM610 1379v-220h-209v220h209z" />
    <glyph glyph-name="imacron" unicode="&#x12b;" horiz-adv-x="644" 
d="M85 66q49 13 67.5 34t25 57t6.5 131v465q0 49 -4.5 79t-17 48t-34 27.5t-55.5 16.5v68l275 8h125v-711q0 -56 1.5 -86.5t4.5 -47t8.5 -29.5t14.5 -24t26 -20t45 -16v-66h-488v66zM604 1192h-564v154h564v-154z" />
    <glyph glyph-name="ibreve" unicode="&#x12d;" horiz-adv-x="644" 
d="M85 66q49 13 67.5 34t25 57t6.5 131v465q0 49 -4.5 79t-17 48t-34 27.5t-55.5 16.5v68l275 8h125v-711q0 -56 1.5 -86.5t4.5 -47t8.5 -29.5t14.5 -24t26 -20t45 -16v-66h-488v66zM639 1410q-34 -139 -112.5 -210t-212.5 -71q-121 0 -200.5 72t-108.5 209l97 30
q34 -78 83.5 -114.5t132.5 -36.5q90 0 142 37.5t82 113.5z" />
    <glyph glyph-name="iogonek" unicode="&#x12f;" horiz-adv-x="644" 
d="M465 1391v-245h-274v245h274zM85 66q49 13 67.5 34t25 57t6.5 131v465q0 49 -4.5 79t-17 48t-34 27.5t-55.5 16.5v68l275 8h125v-711q0 -56 1.5 -86.5t4.5 -47t8.5 -29.5t14.5 -24t26 -20t45 -16v-66h-102q-58 -54 -87.5 -112t-29.5 -111q0 -49 23.5 -74t64.5 -25
q30 0 52.5 10t40.5 22l38 -86q-36 -25 -82 -42.5t-98 -17.5q-40 0 -77.5 9.5t-66.5 30t-46.5 55.5t-17.5 85q0 69 43.5 135.5t126.5 120.5h-270v66z" />
    <glyph glyph-name="dotlessi" unicode="&#x131;" horiz-adv-x="644" 
d="M85 66q49 13 67.5 34t25 57t6.5 131v465q0 49 -4.5 79t-17 48t-34 27.5t-55.5 16.5v68l275 8h125v-711q0 -56 1.5 -86.5t4.5 -47t8.5 -29.5t14.5 -24t26 -20t45 -16v-66h-488v66z" />
    <glyph glyph-name="ij" unicode="&#x133;" horiz-adv-x="1263" 
d="M465 1391v-245h-274v245h274zM85 66q49 13 67.5 34t25 57t6.5 131v465q0 49 -4.5 79t-17 48t-34 27.5t-55.5 16.5v68l275 8h125v-711q0 -56 1.5 -86.5t4.5 -47t8.5 -29.5t14.5 -24t26 -20t45 -16v-66h-488v66zM1094 1391v-245h-274v245h274zM1102 79q0 -118 -20.5 -199.5
t-69 -143.5t-135.5 -108.5t-173 -70.5l-48 117q67 27 98 55t45 71.5t14 119.5v833q0 49 -4.5 79t-17 48t-34 27.5t-55.5 16.5v68l275 8h125v-921z" />
    <glyph glyph-name="jcircumflex" unicode="&#x135;" horiz-adv-x="619" 
d="M401 1468l208 -314l-77 -66l-217 213h-11l-220 -213l-77 66l220 314h174zM171 753q0 49 -4.5 79t-17 48t-34 27.5t-55.5 16.5v68l275 8h125v-921q0 -118 -20.5 -199.5t-69 -143.5t-135.5 -108.5t-173 -70.5l-48 117q67 27 98 55t45 71.5t14 119.5v833z" />
    <glyph glyph-name="uni0137" unicode="&#x137;" horiz-adv-x="1212" 
d="M793 631l258 -382q57 -85 84 -117t47 -45.5t50 -20.5v-66h-489v66q45 9 45 47q0 26 -17.5 61.5t-68.5 110.5l-77 116q-26 39 -42 56.5t-31.5 26.5t-43.5 9h-48v-204q0 -95 6 -131t24.5 -57.5t69.5 -34.5v-66h-490v66q30 7 47 16.5t26.5 22t16.5 32t9 54t2 98.5v780
q0 86 -1.5 126.5t-6.5 68t-15 44t-29 26.5t-61 18v66l278 14h124v-843h33q35 0 55 7t41.5 22.5t66.5 56t68 72t31 55t8 45.5q0 69 -87 81v64h500v-64q-39 -6 -87 -36t-151 -126zM742 -102q17 -42 17 -95q0 -102 -91.5 -163.5t-257.5 -69.5l-16 95q63 10 95 25t47 42t15 73
t-8 93h199z" />
    <glyph glyph-name="kgreenlandic" unicode="&#x138;" horiz-adv-x="1225" 
d="M184 753q0 49 -4.5 79t-17 48t-34 27.5t-55.5 16.5v68l275 8h125v-411h36q31 0 50 6q22 7 45 25q32 23 79 67q35 33 57 63q19 27 28 52q8 21 8 45q0 69 -87 81v64h500v-64q-39 -6 -87 -36t-151 -126l-145 -135l258 -382q57 -85 84 -117t47 -45.5t50 -20.5v-66h-489v66
q45 9 45 47q0 17 -7 37t-22 45.5t-57 89.5l-77 116q-26 39 -42 56.5t-31.5 26.5t-43.5 9h-48v-204q0 -95 6 -131t24.5 -57.5t69.5 -34.5v-66h-490v66q30 7 47 16.5t26.5 22t16.5 32t9 54t2 98.5v464z" />
    <glyph glyph-name="lacute" unicode="&#x13a;" horiz-adv-x="631" 
d="M460 289q0 -95 6 -131t24.5 -57.5t69.5 -34.5v-66h-490v66q30 7 47 16.5t26.5 22t16.5 32t9 54t2 98.5v780q0 86 -1.5 126.5t-6 68t-15 44t-29.5 26.5t-61 18v66l277 14h125v-1143zM613 1798v-66l-406 -264l-65 70l244 260h227z" />
    <glyph glyph-name="lcaron" unicode="&#x13e;" horiz-adv-x="892" 
d="M460 289q0 -95 6 -131t24.5 -57.5t69.5 -34.5v-66h-490v66q30 7 47 16.5t26.5 22t16.5 32t9 54t2 98.5v780q0 86 -1.5 126.5t-6 68t-15 44t-29.5 26.5t-61 18v66l277 14h125v-1143zM838 1431q23 -66 23 -129q0 -83 -48 -154t-168 -162l-64 63q44 48 61.5 98.5t17.5 133.5
q0 32 -2.5 60t-13.5 90h194z" />
    <glyph glyph-name="uni013C" unicode="&#x13c;" horiz-adv-x="631" 
d="M460 289q0 -95 6 -131t24.5 -57.5t69.5 -34.5v-66h-490v66q30 7 47 16.5t26.5 22t16.5 32t9 54t2 98.5v780q0 86 -1.5 126.5t-6 68t-15 44t-29.5 26.5t-61 18v66l277 14h125v-1143zM411 -102q17 -42 17 -95q0 -102 -91.5 -163.5t-257.5 -69.5l-16 95q63 10 95 25t47 42
t15 73t-8 93h199z" />
    <glyph glyph-name="lslash" unicode="&#x142;" horiz-adv-x="701" 
d="M495 786v-497q0 -95 6 -131t24.5 -57.5t69.5 -34.5v-66h-490v66q30 7 47 16.5t26.5 22t16.5 32t9 54t2 98.5v338l-130 -88l-60 99l190 119v312q0 86 -1.5 126.5t-6 68t-15 44t-29.5 26.5t-61 18v66l277 14h125v-516l130 88l61 -98z" />
    <glyph glyph-name="ldot" unicode="&#x140;" horiz-adv-x="907" 
d="M460 289q0 -95 6 -131t24.5 -57.5t69.5 -34.5v-66h-490v66q30 7 47 16.5t26.5 22t16.5 32t9 54t2 98.5v780q0 86 -1.5 126.5t-6 68t-15 44t-29.5 26.5t-61 18v66l277 14h125v-1143zM880 817v-245h-249v245h249z" />
    <glyph glyph-name="nacute" unicode="&#x144;" horiz-adv-x="1236" 
d="M1173 0h-485v66q46 11 64 32.5t24.5 58t6.5 131.5v267q0 71 -3 116.5t-9.5 74.5t-18 48.5t-25.5 32t-32 18.5t-46 6q-38 0 -79 -23.5t-69 -65t-28 -88.5v-385q0 -95 6 -132t24.5 -58.5t65.5 -32.5v-66h-483v66q48 13 66.5 34t25 57t6.5 131v411q0 74 -2.5 109.5t-12 57
t-29 35t-67.5 23.5v68l274 8h126l-15 -144l12 -3q62 55 109 86.5t98.5 50t108.5 18.5q82 0 136 -23.5t87.5 -68.5t48 -110t14.5 -151v-366q0 -44 1.5 -82.5t7.5 -61.5t16.5 -37.5t29.5 -24.5t46 -17v-66zM893 1475v-66l-347 -322l-80 66l218 322h209z" />
    <glyph glyph-name="ncaron" unicode="&#x148;" horiz-adv-x="1236" 
d="M1173 0h-485v66q46 11 64 32.5t24.5 58t6.5 131.5v267q0 71 -3 116.5t-9.5 74.5t-18 48.5t-25.5 32t-32 18.5t-46 6q-38 0 -79 -23.5t-69 -65t-28 -88.5v-385q0 -95 6 -132t24.5 -58.5t65.5 -32.5v-66h-483v66q48 13 66.5 34t25 57t6.5 131v411q0 74 -2.5 109.5t-12 57
t-29 35t-67.5 23.5v68l274 8h126l-15 -144l12 -3q62 55 109 86.5t98.5 50t108.5 18.5q82 0 136 -23.5t87.5 -68.5t48 -110t14.5 -151v-366q0 -44 1.5 -82.5t7.5 -61.5t16.5 -37.5t29.5 -24.5t46 -17v-66zM523 1102l-206 314l77 66l217 -218h11l220 218l77 -66l-222 -314
h-174z" />
    <glyph glyph-name="ntilde" unicode="&#xf1;" horiz-adv-x="1236" 
d="M1173 0h-485v66q46 11 64 32.5t24.5 58t6.5 131.5v267q0 71 -3 116.5t-9.5 74.5t-18 48.5t-25.5 32t-32 18.5t-46 6q-38 0 -79 -23.5t-69 -65t-28 -88.5v-385q0 -95 6 -132t24.5 -58.5t65.5 -32.5v-66h-483v66q48 13 66.5 34t25 57t6.5 131v411q0 74 -2.5 109.5t-12 57
t-29 35t-67.5 23.5v68l274 8h126l-15 -144l12 -3q62 55 109 86.5t98.5 50t108.5 18.5q82 0 136 -23.5t87.5 -68.5t48 -110t14.5 -151v-366q0 -44 1.5 -82.5t7.5 -61.5t16.5 -37.5t29.5 -24.5t46 -17v-66zM877 1402l94 -41q-57 -118 -110 -174.5t-109 -56.5q-37 0 -67.5 10.5
t-87.5 49.5q-32 22 -49 31.5t-33.5 14.5t-33.5 5q-23 0 -40.5 -8.5t-38 -33t-43.5 -69.5l-93 41q47 91 78.5 136t66.5 70t78 25q24 0 45.5 -5t41.5 -15.5t57 -35.5t54.5 -35t34 -15t38.5 -5q35 0 61.5 26.5t55.5 84.5z" />
    <glyph glyph-name="uni0146" unicode="&#x146;" horiz-adv-x="1236" 
d="M1173 0h-485v66q46 11 64 32.5t24.5 58t6.5 131.5v267q0 71 -3 116.5t-9.5 74.5t-18 48.5t-25.5 32t-32 18.5t-46 6q-38 0 -79 -23.5t-69 -65t-28 -88.5v-385q0 -95 6 -132t24.5 -58.5t65.5 -32.5v-66h-483v66q48 13 66.5 34t25 57t6.5 131v411q0 74 -2.5 109.5t-12 57
t-29 35t-67.5 23.5v68l274 8h126l-15 -144l12 -3q62 55 109 86.5t98.5 50t108.5 18.5q82 0 136 -23.5t87.5 -68.5t48 -110t14.5 -151v-366q0 -44 1.5 -82.5t7.5 -61.5t16.5 -37.5t29.5 -24.5t46 -17v-66zM733 -102q17 -42 17 -95q0 -102 -91.5 -163.5t-257.5 -69.5l-16 95
q63 10 95 25t47 42t15 73t-8 93h199z" />
    <glyph glyph-name="napostrophe" unicode="&#x149;" horiz-adv-x="1522" 
d="M369 1432q23 -79 23 -151q0 -73 -27 -133.5t-80 -115t-143 -116.5l-81 86q47 50 69.5 111.5t22.5 143.5q0 47 -4.5 88.5t-13.5 86.5h234zM1459 0h-485v66q46 11 64 32.5t24.5 58t6.5 131.5v267q0 71 -3 116.5t-9.5 74.5t-18 48.5t-25.5 32t-32 18.5t-46 6
q-38 0 -79 -23.5t-69 -65t-28 -88.5v-385q0 -95 6 -132t24.5 -58.5t65.5 -32.5v-66h-483v66q48 13 66.5 34t25 57t6.5 131v411q0 74 -2.5 109.5t-12 57t-29 35t-67.5 23.5v68l274 8h126l-15 -144l12 -3q62 55 109 86.5t98.5 50t108.5 18.5q82 0 136 -23.5t87.5 -68.5
t48 -110t14.5 -151v-366q0 -44 1.5 -82.5t7.5 -61.5t16.5 -37.5t29.5 -24.5t46 -17v-66z" />
    <glyph glyph-name="ograve" unicode="&#xf2;" horiz-adv-x="1166" 
d="M571 -16q-147 0 -253.5 51.5t-166.5 165t-60 288.5q0 134 37 232t103 162t157.5 94.5t198.5 30.5q242 0 365 -127.5t123 -373.5q0 -174 -61 -291.5t-174 -174.5t-269 -57zM395 511q0 -212 47.5 -317.5t143.5 -105.5q53 0 88.5 27t57 78t30.5 122.5t9 160.5
q0 215 -47.5 321.5t-140.5 106.5q-68 0 -109 -43t-60 -129t-19 -221zM517 1475l218 -322l-80 -66l-347 322v66h209z" />
    <glyph glyph-name="oacute" unicode="&#xf3;" horiz-adv-x="1166" 
d="M571 -16q-147 0 -253.5 51.5t-166.5 165t-60 288.5q0 134 37 232t103 162t157.5 94.5t198.5 30.5q242 0 365 -127.5t123 -373.5q0 -174 -61 -291.5t-174 -174.5t-269 -57zM395 511q0 -212 47.5 -317.5t143.5 -105.5q53 0 88.5 27t57 78t30.5 122.5t9 160.5
q0 215 -47.5 321.5t-140.5 106.5q-68 0 -109 -43t-60 -129t-19 -221zM858 1475v-66l-347 -322l-80 66l218 322h209z" />
    <glyph glyph-name="ocircumflex" unicode="&#xf4;" horiz-adv-x="1166" 
d="M571 -16q-147 0 -253.5 51.5t-166.5 165t-60 288.5q0 134 37 232t103 162t157.5 94.5t198.5 30.5q242 0 365 -127.5t123 -373.5q0 -174 -61 -291.5t-174 -174.5t-269 -57zM395 511q0 -212 47.5 -317.5t143.5 -105.5q53 0 88.5 27t57 78t30.5 122.5t9 160.5
q0 215 -47.5 321.5t-140.5 106.5q-68 0 -109 -43t-60 -129t-19 -221zM678 1468l206 -314l-77 -66l-217 218h-11l-220 -218l-77 66l222 314h174z" />
    <glyph glyph-name="otilde" unicode="&#xf5;" horiz-adv-x="1166" 
d="M571 -16q-147 0 -253.5 51.5t-166.5 165t-60 288.5q0 134 37 232t103 162t157.5 94.5t198.5 30.5q242 0 365 -127.5t123 -373.5q0 -174 -61 -291.5t-174 -174.5t-269 -57zM395 511q0 -212 47.5 -317.5t143.5 -105.5q53 0 88.5 27t57 78t30.5 122.5t9 160.5
q0 215 -47.5 321.5t-140.5 106.5q-68 0 -109 -43t-60 -129t-19 -221zM842 1402l94 -41q-57 -118 -110 -174.5t-109 -56.5q-37 0 -67.5 10.5t-87.5 49.5q-32 22 -49 31.5t-33.5 14.5t-33.5 5q-23 0 -40.5 -8.5t-38 -33t-43.5 -69.5l-93 41q47 91 78.5 136t66.5 70t78 25
q24 0 45.5 -5t41.5 -15.5t57 -35.5t54.5 -35t34 -15t38.5 -5q35 0 61.5 26.5t55.5 84.5z" />
    <glyph glyph-name="odieresis" unicode="&#xf6;" horiz-adv-x="1166" 
d="M571 -16q-147 0 -253.5 51.5t-166.5 165t-60 288.5q0 134 37 232t103 162t157.5 94.5t198.5 30.5q242 0 365 -127.5t123 -373.5q0 -174 -61 -291.5t-174 -174.5t-269 -57zM395 511q0 -212 47.5 -317.5t143.5 -105.5q53 0 88.5 27t57 78t30.5 122.5t9 160.5
q0 215 -47.5 321.5t-140.5 106.5q-68 0 -109 -43t-60 -129t-19 -221zM505 1379v-220h-209v220h209zM871 1379v-220h-209v220h209z" />
    <glyph glyph-name="omacron" unicode="&#x14d;" horiz-adv-x="1166" 
d="M571 -16q-147 0 -253.5 51.5t-166.5 165t-60 288.5q0 134 37 232t103 162t157.5 94.5t198.5 30.5q242 0 365 -127.5t123 -373.5q0 -174 -61 -291.5t-174 -174.5t-269 -57zM395 511q0 -212 47.5 -317.5t143.5 -105.5q53 0 88.5 27t57 78t30.5 122.5t9 160.5
q0 215 -47.5 321.5t-140.5 106.5q-68 0 -109 -43t-60 -129t-19 -221zM865 1192h-564v154h564v-154z" />
    <glyph glyph-name="obreve" unicode="&#x14f;" horiz-adv-x="1166" 
d="M571 -16q-147 0 -253.5 51.5t-166.5 165t-60 288.5q0 134 37 232t103 162t157.5 94.5t198.5 30.5q242 0 365 -127.5t123 -373.5q0 -174 -61 -291.5t-174 -174.5t-269 -57zM395 511q0 -212 47.5 -317.5t143.5 -105.5q53 0 88.5 27t57 78t30.5 122.5t9 160.5
q0 215 -47.5 321.5t-140.5 106.5q-68 0 -109 -43t-60 -129t-19 -221zM900 1410q-34 -139 -112.5 -210t-212.5 -71q-121 0 -200.5 72t-108.5 209l97 30q34 -78 83.5 -114.5t132.5 -36.5q90 0 142 37.5t82 113.5z" />
    <glyph glyph-name="ohungarumlaut" unicode="&#x151;" horiz-adv-x="1166" 
d="M571 -16q-147 0 -253.5 51.5t-166.5 165t-60 288.5q0 134 37 232t103 162t157.5 94.5t198.5 30.5q242 0 365 -127.5t123 -373.5q0 -174 -61 -291.5t-174 -174.5t-269 -57zM395 511q0 -212 47.5 -317.5t143.5 -105.5q53 0 88.5 27t57 78t30.5 122.5t9 160.5
q0 215 -47.5 321.5t-140.5 106.5q-68 0 -109 -43t-60 -129t-19 -221zM684 1475v-66l-319 -322l-77 66l239 322h157zM1002 1475v-66l-323 -322l-77 66l243 322h157z" />
    <glyph glyph-name="oslash" unicode="&#xf8;" horiz-adv-x="1166" 
d="M249 79q-158 125 -158 409q0 134 37 232t103 162t157.5 95t198.5 31q128 0 225 -37l98 156h143l-136 -215q158 -128 158 -405q0 -174 -61 -291.5t-174 -174.5t-269 -57q-122 0 -217 36l-98 -155h-142zM400 314l317 508q-46 82 -134 82q-103 0 -148.5 -95.5t-45.5 -297.5
q0 -124 11 -197zM765 678l-317 -509q48 -81 138 -81q54 0 91 27t59.5 78t31.5 122.5t9 160.5q0 121 -12 202z" />
    <glyph glyph-name="oslashacute" unicode="&#x1ff;" horiz-adv-x="1166" 
d="M249 79q-158 125 -158 409q0 134 37 232t103 162t157.5 95t198.5 31q128 0 225 -37l98 156h143l-136 -215q158 -128 158 -405q0 -174 -61 -291.5t-174 -174.5t-269 -57q-122 0 -217 36l-98 -155h-142zM400 314l317 508q-46 82 -134 82q-103 0 -148.5 -95.5t-45.5 -297.5
q0 -124 11 -197zM765 678l-317 -509q48 -81 138 -81q54 0 91 27t59.5 78t31.5 122.5t9 160.5q0 121 -12 202zM858 1475v-66l-347 -322l-80 66l218 322h209z" />
    <glyph glyph-name="oe" unicode="&#x153;" horiz-adv-x="1755" 
d="M1659 182q-102 -108 -202 -153t-230 -45q-94 0 -174 32.5t-143 99.5h-10q-56 -50 -102.5 -76.5t-101.5 -41t-125 -14.5q-146 0 -253 51.5t-167 164.5t-60 287q0 163 58.5 280.5t171.5 179t268 61.5q99 0 177.5 -31.5t155.5 -104.5h10q79 72 155 104t162 32
q91 0 159.5 -21t117.5 -58.5t81 -90.5q38 -63 57 -144q20 -83 21 -201h-634q1 -181 64.5 -266.5t193.5 -85.5q76 0 137 28.5t132 100.5zM395 511q0 -212 47.5 -317.5t143.5 -105.5q53 0 88.5 27t57 78t30.5 122.5t9 160.5q0 215 -47.5 321.5t-140.5 106.5q-68 0 -109 -43
t-60 -129t-19 -221zM1389 601q-4 153 -40 228t-116 75q-77 0 -122.5 -78t-54.5 -225h333z" />
    <glyph glyph-name="racute" unicode="&#x155;" horiz-adv-x="945" 
d="M459 849l13 -3q73 86 150 124t167 38q61 0 128 -13v-276h-181q-17 58 -44.5 89t-73.5 31q-22 0 -48.5 -13.5t-49 -38t-32 -50t-12.5 -51.5t-3 -78v-319q0 -95 7 -133t28 -59.5t71 -30.5v-66h-493v66q48 13 66.5 34t25 57t6.5 131v411q0 74 -2.5 109.5t-12 57t-29 35
t-67.5 23.5v68l274 8h126zM748 1475v-66l-347 -322l-80 66l218 322h209z" />
    <glyph glyph-name="rcaron" unicode="&#x159;" horiz-adv-x="945" 
d="M459 849l13 -3q73 86 150 124t167 38q61 0 128 -13v-276h-181q-17 58 -44.5 89t-73.5 31q-22 0 -48.5 -13.5t-49 -38t-32 -50t-12.5 -51.5t-3 -78v-319q0 -95 7 -133t28 -59.5t71 -30.5v-66h-493v66q48 13 66.5 34t25 57t6.5 131v411q0 74 -2.5 109.5t-12 57t-29 35
t-67.5 23.5v68l274 8h126zM377 1102l-206 314l77 66l217 -218h11l220 218l77 -66l-222 -314h-174z" />
    <glyph glyph-name="uni0157" unicode="&#x157;" horiz-adv-x="945" 
d="M459 849l13 -3q73 86 150 124t167 38q61 0 128 -13v-276h-181q-17 58 -44.5 89t-73.5 31q-22 0 -48.5 -13.5t-49 -38t-32 -50t-12.5 -51.5t-3 -78v-319q0 -95 7 -133t28 -59.5t71 -30.5v-66h-493v66q48 13 66.5 34t25 57t6.5 131v411q0 74 -2.5 109.5t-12 57t-29 35
t-67.5 23.5v68l274 8h126zM449 -102q17 -42 17 -95q0 -102 -91.5 -163.5t-257.5 -69.5l-16 95q63 10 95 25t47 42t15 73t-8 93h199z" />
    <glyph glyph-name="sacute" unicode="&#x15b;" horiz-adv-x="940" 
d="M215 270q24 -91 76 -136.5t139 -45.5q75 0 113.5 34t38.5 99q0 41 -17.5 70t-58 55.5t-138.5 69.5q-55 24 -103.5 53t-84.5 65.5t-57 81.5t-21 100q0 90 52 156t148.5 101t220.5 35q73 0 143 -6t181 -26v-233h-132q-23 64 -50.5 99t-60.5 48.5t-79 13.5q-66 0 -105 -30
t-39 -84q0 -38 14 -65t50 -52.5t139 -68.5q94 -39 153 -81.5t90 -98t31 -129.5q0 -81 -30 -139.5t-84 -96.5t-129.5 -56.5t-166.5 -18.5q-165 0 -367 47v239h134zM745 1475v-66l-347 -322l-80 66l218 322h209z" />
    <glyph glyph-name="scircumflex" unicode="&#x15d;" horiz-adv-x="940" 
d="M215 270q24 -91 76 -136.5t139 -45.5q75 0 113.5 34t38.5 99q0 41 -17.5 70t-58 55.5t-138.5 69.5q-55 24 -103.5 53t-84.5 65.5t-57 81.5t-21 100q0 90 52 156t148.5 101t220.5 35q73 0 143 -6t181 -26v-233h-132q-23 64 -50.5 99t-60.5 48.5t-79 13.5q-66 0 -105 -30
t-39 -84q0 -38 14 -65t50 -52.5t139 -68.5q94 -39 153 -81.5t90 -98t31 -129.5q0 -81 -30 -139.5t-84 -96.5t-129.5 -56.5t-166.5 -18.5q-165 0 -367 47v239h134zM565 1468l206 -314l-77 -66l-217 218h-11l-220 -218l-77 66l222 314h174z" />
    <glyph glyph-name="scaron" unicode="&#x161;" horiz-adv-x="940" 
d="M215 270q24 -91 76 -136.5t139 -45.5q75 0 113.5 34t38.5 99q0 41 -17.5 70t-58 55.5t-138.5 69.5q-55 24 -103.5 53t-84.5 65.5t-57 81.5t-21 100q0 90 52 156t148.5 101t220.5 35q73 0 143 -6t181 -26v-233h-132q-23 64 -50.5 99t-60.5 48.5t-79 13.5q-66 0 -105 -30
t-39 -84q0 -38 14 -65t50 -52.5t139 -68.5q94 -39 153 -81.5t90 -98t31 -129.5q0 -81 -30 -139.5t-84 -96.5t-129.5 -56.5t-166.5 -18.5q-165 0 -367 47v239h134zM375 1102l-206 314l77 66l217 -218h11l220 218l77 -66l-222 -314h-174z" />
    <glyph glyph-name="scedilla" unicode="&#x15f;" horiz-adv-x="940" 
d="M215 270q24 -91 76 -136.5t139 -45.5q75 0 113.5 34t38.5 99q0 41 -17.5 70t-58 55.5t-138.5 69.5q-55 24 -103.5 53t-84.5 65.5t-57 81.5t-21 100q0 90 52 156t148.5 101t220.5 35q73 0 143 -6t181 -26v-233h-132q-23 64 -50.5 99t-60.5 48.5t-79 13.5q-66 0 -105 -30
t-39 -84q0 -38 14 -65t50 -52.5t139 -68.5q94 -39 153 -81.5t90 -98t31 -129.5q0 -104 -53 -176.5t-156 -106.5l-116 -80q17 -23 25.5 -56.5t8.5 -72.5q0 -102 -91.5 -163.5t-257.5 -69.5l-16 95q82 12 119.5 40t37.5 87q0 37 -5 63v43l129 87q-8 -1 -17 -1h-18
q-165 0 -367 47v239h134z" />
    <glyph glyph-name="uni0219" unicode="&#x219;" horiz-adv-x="940" 
d="M215 270q24 -91 76 -136.5t139 -45.5q75 0 113.5 34t38.5 99q0 41 -17.5 70t-58 55.5t-138.5 69.5q-55 24 -103.5 53t-84.5 65.5t-57 81.5t-21 100q0 90 52 156t148.5 101t220.5 35q73 0 143 -6t181 -26v-233h-132q-23 64 -50.5 99t-60.5 48.5t-79 13.5q-66 0 -105 -30
t-39 -84q0 -38 14 -65t50 -52.5t139 -68.5q94 -39 153 -81.5t90 -98t31 -129.5q0 -81 -30 -139.5t-84 -96.5t-129.5 -56.5t-166.5 -18.5q-165 0 -367 47v239h134zM591 -102q17 -42 17 -95q0 -102 -91.5 -163.5t-257.5 -69.5l-16 95q63 10 95 25t47 42t15 73t-8 93h199z" />
    <glyph glyph-name="germandbls" unicode="&#xdf;" horiz-adv-x="1386" 
d="M591 24v189h116q24 -65 68.5 -95t118.5 -30q72 0 111 33.5t39 99.5q0 34 -12 59.5t-37 46.5t-63 41t-89 43q-82 37 -131 73t-74 81t-25 106q0 47 14 82.5t44.5 71.5t94.5 90q71 60 104 114.5t33 126.5q0 82 -47 129t-130 47q-80 0 -135.5 -37t-86.5 -127t-31 -241v-927
h-389v66q47 14 65.5 31t26.5 47.5t8 106.5v616h-122v69q54 8 75.5 20t35.5 36t23 79q31 178 170.5 271t371.5 93q198 0 295 -67t97 -200q0 -52 -15.5 -90.5t-47 -75t-112.5 -103.5q-40 -33 -61.5 -56.5t-30 -42t-8.5 -41.5q0 -29 19 -53t58.5 -47t115.5 -56
q95 -41 153 -82.5t88.5 -96.5t30.5 -129q0 -81 -30 -139.5t-84 -96.5t-129.5 -56.5t-166.5 -18.5q-80 0 -149.5 8t-169.5 32z" />
    <glyph glyph-name="longs" unicode="&#x17f;" horiz-adv-x="657" 
d="M84 66q47 14 65.5 31t26.5 47.5t8 106.5v616h-122v69q47 7 65.5 15.5t30.5 23t19 37.5t10 59q16 180 133.5 272.5t332.5 92.5q86 0 153 -14v-204h-136q-17 55 -37.5 81t-53.5 26q-43 0 -66 -28.5t-31.5 -81t-8.5 -147.5v-817q0 -75 8 -106t28.5 -49t72.5 -30v-66h-498v66
z" />
    <glyph glyph-name="tcaron" unicode="&#x165;" horiz-adv-x="1020" 
d="M957 1431q23 -66 23 -129q0 -52 -19 -94.5t-57.5 -83.5t-128.5 -110l-64 63q37 36 52.5 79t15.5 125q0 32 -2.5 60t-13.5 90h194zM770 120q-88 -75 -160 -105.5t-152 -30.5q-149 0 -222.5 80.5t-73.5 243.5v559h-125v69q61 10 90 30t45 53.5t25.5 87.5t14.5 135h239v-250
h285v-125h-285v-451q0 -113 10.5 -167t35.5 -79.5t62 -25.5q28 0 50 5t46.5 18t51.5 37z" />
    <glyph glyph-name="uni0163" unicode="&#x163;" horiz-adv-x="748" 
d="M770 120q-88 -75 -160 -105.5t-152 -30.5q-149 0 -222.5 80.5t-73.5 243.5v559h-125v69q61 10 90 30t45 53.5t25.5 87.5t14.5 135h239v-250h285v-125h-285v-451q0 -113 10.5 -167t35.5 -79.5t62 -25.5q28 0 50 5t46.5 18t51.5 37zM530 -102q17 -42 17 -95
q0 -102 -91.5 -163.5t-257.5 -69.5l-16 95q63 10 95 25t47 42t15 73t-8 93h199z" />
    <glyph glyph-name="tbar" unicode="&#x167;" horiz-adv-x="771" 
d="M695 480h-233v-64q0 -113 10.5 -167t35.5 -79.5t62 -25.5q28 0 50 5t46.5 18t51.5 37l63 -84q-88 -75 -160 -105.5t-152 -30.5q-149 0 -222.5 80.5t-73.5 243.5v172h-125v112h125v275h-125v69q61 10 90 30t45 53.5t25.5 87.5t14.5 135h239v-250h285v-125h-285v-275h233
v-112z" />
    <glyph glyph-name="ugrave" unicode="&#xf9;" horiz-adv-x="1223" 
d="M64 992h389v-555q0 -96 6 -150t23 -85.5t41.5 -46t62.5 -14.5q37 0 78 23t69.5 64.5t28.5 88.5v386q0 73 -3 108.5t-11.5 55.5t-26.5 33.5t-59 25.5v66h390v-700q0 -76 2.5 -111t11.5 -56t29 -34.5t67 -23.5v-67l-272 -9h-121l9 144l-12 3q-93 -86 -166 -120t-147 -34
q-106 0 -169.5 39.5t-91.5 116t-28 197.5v366q0 56 -1.5 86t-4.5 46.5t-8.5 30t-15 24.5t-26 20t-44.5 16v66zM530 1475l218 -322l-80 -66l-347 322v66h209z" />
    <glyph glyph-name="uacute" unicode="&#xfa;" horiz-adv-x="1223" 
d="M64 992h389v-555q0 -96 6 -150t23 -85.5t41.5 -46t62.5 -14.5q37 0 78 23t69.5 64.5t28.5 88.5v386q0 73 -3 108.5t-11.5 55.5t-26.5 33.5t-59 25.5v66h390v-700q0 -76 2.5 -111t11.5 -56t29 -34.5t67 -23.5v-67l-272 -9h-121l9 144l-12 3q-93 -86 -166 -120t-147 -34
q-106 0 -169.5 39.5t-91.5 116t-28 197.5v366q0 56 -1.5 86t-4.5 46.5t-8.5 30t-15 24.5t-26 20t-44.5 16v66zM887 1475v-66l-347 -322l-80 66l218 322h209z" />
    <glyph glyph-name="ucircumflex" unicode="&#xfb;" horiz-adv-x="1223" 
d="M64 992h389v-555q0 -96 6 -150t23 -85.5t41.5 -46t62.5 -14.5q37 0 78 23t69.5 64.5t28.5 88.5v386q0 73 -3 108.5t-11.5 55.5t-26.5 33.5t-59 25.5v66h390v-700q0 -76 2.5 -111t11.5 -56t29 -34.5t67 -23.5v-67l-272 -9h-121l9 144l-12 3q-93 -86 -166 -120t-147 -34
q-106 0 -169.5 39.5t-91.5 116t-28 197.5v366q0 56 -1.5 86t-4.5 46.5t-8.5 30t-15 24.5t-26 20t-44.5 16v66zM706 1468l206 -314l-77 -66l-217 218h-11l-220 -218l-77 66l222 314h174z" />
    <glyph glyph-name="utilde" unicode="&#x169;" horiz-adv-x="1223" 
d="M64 992h389v-555q0 -96 6 -150t23 -85.5t41.5 -46t62.5 -14.5q37 0 78 23t69.5 64.5t28.5 88.5v386q0 73 -3 108.5t-11.5 55.5t-26.5 33.5t-59 25.5v66h390v-700q0 -76 2.5 -111t11.5 -56t29 -34.5t67 -23.5v-67l-272 -9h-121l9 144l-12 3q-93 -86 -166 -120t-147 -34
q-106 0 -169.5 39.5t-91.5 116t-28 197.5v366q0 56 -1.5 86t-4.5 46.5t-8.5 30t-15 24.5t-26 20t-44.5 16v66zM870 1402l94 -41q-57 -118 -110 -174.5t-109 -56.5q-37 0 -67.5 10.5t-87.5 49.5q-32 22 -49 31.5t-33.5 14.5t-33.5 5q-23 0 -40.5 -8.5t-38 -33t-43.5 -69.5
l-93 41q47 91 78.5 136t66.5 70t78 25q24 0 45.5 -5t41.5 -15.5t57 -35.5t54.5 -35t34 -15t38.5 -5q35 0 61.5 26.5t55.5 84.5z" />
    <glyph glyph-name="udieresis" unicode="&#xfc;" horiz-adv-x="1223" 
d="M64 992h389v-555q0 -96 6 -150t23 -85.5t41.5 -46t62.5 -14.5q37 0 78 23t69.5 64.5t28.5 88.5v386q0 73 -3 108.5t-11.5 55.5t-26.5 33.5t-59 25.5v66h390v-700q0 -76 2.5 -111t11.5 -56t29 -34.5t67 -23.5v-67l-272 -9h-121l9 144l-12 3q-93 -86 -166 -120t-147 -34
q-106 0 -169.5 39.5t-91.5 116t-28 197.5v366q0 56 -1.5 86t-4.5 46.5t-8.5 30t-15 24.5t-26 20t-44.5 16v66zM533 1379v-220h-209v220h209zM899 1379v-220h-209v220h209z" />
    <glyph glyph-name="umacron" unicode="&#x16b;" horiz-adv-x="1223" 
d="M64 992h389v-555q0 -96 6 -150t23 -85.5t41.5 -46t62.5 -14.5q37 0 78 23t69.5 64.5t28.5 88.5v386q0 73 -3 108.5t-11.5 55.5t-26.5 33.5t-59 25.5v66h390v-700q0 -76 2.5 -111t11.5 -56t29 -34.5t67 -23.5v-67l-272 -9h-121l9 144l-12 3q-93 -86 -166 -120t-147 -34
q-106 0 -169.5 39.5t-91.5 116t-28 197.5v366q0 56 -1.5 86t-4.5 46.5t-8.5 30t-15 24.5t-26 20t-44.5 16v66zM894 1192h-564v154h564v-154z" />
    <glyph glyph-name="ubreve" unicode="&#x16d;" horiz-adv-x="1223" 
d="M64 992h389v-555q0 -96 6 -150t23 -85.5t41.5 -46t62.5 -14.5q37 0 78 23t69.5 64.5t28.5 88.5v386q0 73 -3 108.5t-11.5 55.5t-26.5 33.5t-59 25.5v66h390v-700q0 -76 2.5 -111t11.5 -56t29 -34.5t67 -23.5v-67l-272 -9h-121l9 144l-12 3q-93 -86 -166 -120t-147 -34
q-106 0 -169.5 39.5t-91.5 116t-28 197.5v366q0 56 -1.5 86t-4.5 46.5t-8.5 30t-15 24.5t-26 20t-44.5 16v66zM929 1410q-34 -139 -112.5 -210t-212.5 -71q-121 0 -200.5 72t-108.5 209l97 30q34 -78 83.5 -114.5t132.5 -36.5q90 0 142 37.5t82 113.5z" />
    <glyph glyph-name="uring" unicode="&#x16f;" horiz-adv-x="1223" 
d="M64 992h389v-555q0 -96 6 -150t23 -85.5t41.5 -46t62.5 -14.5q37 0 78 23t69.5 64.5t28.5 88.5v386q0 73 -3 108.5t-11.5 55.5t-26.5 33.5t-59 25.5v66h390v-700q0 -76 2.5 -111t11.5 -56t29 -34.5t67 -23.5v-67l-272 -9h-121l9 144l-12 3q-93 -86 -166 -120t-147 -34
q-106 0 -169.5 39.5t-91.5 116t-28 197.5v366q0 56 -1.5 86t-4.5 46.5t-8.5 30t-15 24.5t-26 20t-44.5 16v66zM606 1084q-113 0 -172 53t-59 154q0 70 31.5 118.5t87 72t125.5 23.5q113 0 171 -52.5t58 -152.5q0 -105 -63.5 -160.5t-178.5 -55.5zM495 1298q0 -65 30 -101
t89 -36q55 0 84.5 33.5t29.5 94.5q0 67 -31 103t-85 36q-58 0 -87.5 -34t-29.5 -96z" />
    <glyph glyph-name="uhungarumlaut" unicode="&#x171;" horiz-adv-x="1223" 
d="M64 992h389v-555q0 -96 6 -150t23 -85.5t41.5 -46t62.5 -14.5q37 0 78 23t69.5 64.5t28.5 88.5v386q0 73 -3 108.5t-11.5 55.5t-26.5 33.5t-59 25.5v66h390v-700q0 -76 2.5 -111t11.5 -56t29 -34.5t67 -23.5v-67l-272 -9h-121l9 144l-12 3q-93 -86 -166 -120t-147 -34
q-106 0 -169.5 39.5t-91.5 116t-28 197.5v366q0 56 -1.5 86t-4.5 46.5t-8.5 30t-15 24.5t-26 20t-44.5 16v66zM712 1475v-66l-319 -322l-77 66l239 322h157zM1030 1475v-66l-323 -322l-77 66l243 322h157z" />
    <glyph glyph-name="uogonek" unicode="&#x173;" horiz-adv-x="1223" 
d="M64 992h389v-555q0 -96 6 -150t23 -85.5t41.5 -46t62.5 -14.5q37 0 78 23t69.5 64.5t28.5 88.5v386q0 73 -3 108.5t-11.5 55.5t-26.5 33.5t-59 25.5v66h390v-700q0 -76 2.5 -111t11.5 -56t29 -34.5t67 -23.5v-67l-115 -4q-53 -49 -83 -106t-30 -113q0 -49 23.5 -74
t64.5 -25q30 0 52.5 10t40.5 22l38 -86q-36 -25 -82 -42.5t-98 -17.5q-40 0 -77.5 9.5t-66.5 30t-46.5 55.5t-17.5 85q0 67 41 131t120 119l-36 -3h-121l9 144l-12 3q-93 -86 -166 -120t-147 -34q-106 0 -169.5 39.5t-91.5 116t-28 197.5v366q0 56 -1.5 86t-4.5 46.5
t-8.5 30t-15 24.5t-26 20t-44.5 16v66z" />
    <glyph glyph-name="wgrave" unicode="&#x1e81;" horiz-adv-x="1635" 
d="M1001 -10l-188 645l-219 -645h-202l-243 761q-22 70 -37 101.5t-34 49t-51 24.5v66h489v-66q-47 -8 -70.5 -28.5t-23.5 -57.5q0 -25 8 -55.5t18 -64.5l125 -415l230 687h186l194 -687l131 361q20 54 27.5 91t7.5 65q0 42 -24 69.5t-68 34.5v66h377v-67q-30 -9 -46.5 -21
t-31 -33t-33 -61t-53.5 -129l-269 -691h-200zM821 1475l218 -322l-80 -66l-347 322v66h209z" />
    <glyph glyph-name="wacute" unicode="&#x1e83;" horiz-adv-x="1635" 
d="M1001 -10l-188 645l-219 -645h-202l-243 761q-22 70 -37 101.5t-34 49t-51 24.5v66h489v-66q-47 -8 -70.5 -28.5t-23.5 -57.5q0 -25 8 -55.5t18 -64.5l125 -415l230 687h186l194 -687l131 361q20 54 27.5 91t7.5 65q0 42 -24 69.5t-68 34.5v66h377v-67q-30 -9 -46.5 -21
t-31 -33t-33 -61t-53.5 -129l-269 -691h-200zM1167 1475v-66l-347 -322l-80 66l218 322h209z" />
    <glyph glyph-name="wcircumflex" unicode="&#x175;" horiz-adv-x="1635" 
d="M1001 -10l-188 645l-219 -645h-202l-243 761q-22 70 -37 101.5t-34 49t-51 24.5v66h489v-66q-47 -8 -70.5 -28.5t-23.5 -57.5q0 -25 8 -55.5t18 -64.5l125 -415l230 687h186l194 -687l131 361q20 54 27.5 91t7.5 65q0 42 -24 69.5t-68 34.5v66h377v-67q-30 -9 -46.5 -21
t-31 -33t-33 -61t-53.5 -129l-269 -691h-200zM983 1468l206 -314l-77 -66l-217 218h-11l-220 -218l-77 66l222 314h174z" />
    <glyph glyph-name="wdieresis" unicode="&#x1e85;" horiz-adv-x="1635" 
d="M1001 -10l-188 645l-219 -645h-202l-243 761q-22 70 -37 101.5t-34 49t-51 24.5v66h489v-66q-47 -8 -70.5 -28.5t-23.5 -57.5q0 -25 8 -55.5t18 -64.5l125 -415l230 687h186l194 -687l131 361q20 54 27.5 91t7.5 65q0 42 -24 69.5t-68 34.5v66h377v-67q-30 -9 -46.5 -21
t-31 -33t-33 -61t-53.5 -129l-269 -691h-200zM809 1379v-220h-209v220h209zM1175 1379v-220h-209v220h209z" />
    <glyph glyph-name="ygrave" unicode="&#x1ef3;" horiz-adv-x="1087" 
d="M590 -45q-65 -145 -122.5 -227.5t-124 -123.5t-165.5 -41q-75 0 -140 19v229h112q13 -47 32.5 -64.5t54.5 -17.5q38 0 68.5 21t69 78.5t94.5 171.5h-57l-261 751q-28 79 -44.5 108.5t-37 45t-50.5 21.5v66h499v-66q-47 -9 -69 -27t-22 -54q0 -48 26 -125l144 -437
l159 383q20 48 30 84.5t10 71.5q0 42 -24 69.5t-68 34.5v66h389v-67q-29 -9 -46.5 -22t-33 -34t-37.5 -62.5t-60 -125.5zM497 1475l218 -322l-80 -66l-347 322v66h209z" />
    <glyph glyph-name="yacute" unicode="&#xfd;" horiz-adv-x="1087" 
d="M590 -45q-65 -145 -122.5 -227.5t-124 -123.5t-165.5 -41q-75 0 -140 19v229h112q13 -47 32.5 -64.5t54.5 -17.5q38 0 68.5 21t69 78.5t94.5 171.5h-57l-261 751q-28 79 -44.5 108.5t-37 45t-50.5 21.5v66h499v-66q-47 -9 -69 -27t-22 -54q0 -48 26 -125l144 -437
l159 383q20 48 30 84.5t10 71.5q0 42 -24 69.5t-68 34.5v66h389v-67q-29 -9 -46.5 -22t-33 -34t-37.5 -62.5t-60 -125.5zM864 1475v-66l-347 -322l-80 66l218 322h209z" />
    <glyph glyph-name="ycircumflex" unicode="&#x177;" horiz-adv-x="1087" 
d="M590 -45q-65 -145 -122.5 -227.5t-124 -123.5t-165.5 -41q-75 0 -140 19v229h112q13 -47 32.5 -64.5t54.5 -17.5q38 0 68.5 21t69 78.5t94.5 171.5h-57l-261 751q-28 79 -44.5 108.5t-37 45t-50.5 21.5v66h499v-66q-47 -9 -69 -27t-22 -54q0 -48 26 -125l144 -437
l159 383q20 48 30 84.5t10 71.5q0 42 -24 69.5t-68 34.5v66h389v-67q-29 -9 -46.5 -22t-33 -34t-37.5 -62.5t-60 -125.5zM679 1468l206 -314l-77 -66l-217 218h-11l-220 -218l-77 66l222 314h174z" />
    <glyph glyph-name="ydieresis" unicode="&#xff;" horiz-adv-x="1087" 
d="M590 -45q-65 -145 -122.5 -227.5t-124 -123.5t-165.5 -41q-75 0 -140 19v229h112q13 -47 32.5 -64.5t54.5 -17.5q38 0 68.5 21t69 78.5t94.5 171.5h-57l-261 751q-28 79 -44.5 108.5t-37 45t-50.5 21.5v66h499v-66q-47 -9 -69 -27t-22 -54q0 -48 26 -125l144 -437
l159 383q20 48 30 84.5t10 71.5q0 42 -24 69.5t-68 34.5v66h389v-67q-29 -9 -46.5 -22t-33 -34t-37.5 -62.5t-60 -125.5zM506 1379v-220h-209v220h209zM872 1379v-220h-209v220h209z" />
    <glyph glyph-name="zacute" unicode="&#x17a;" horiz-adv-x="981" 
d="M403 106h211q45 0 76.5 19t57 66t46.5 131h122v-322h-850v66l512 820h-199q-48 0 -77 -16t-52.5 -54t-54.5 -128h-122v304h842v-66zM766 1475v-66l-347 -322l-80 66l218 322h209z" />
    <glyph glyph-name="zcaron" unicode="&#x17e;" horiz-adv-x="981" 
d="M403 106h211q45 0 76.5 19t57 66t46.5 131h122v-322h-850v66l512 820h-199q-48 0 -77 -16t-52.5 -54t-54.5 -128h-122v304h842v-66zM395 1102l-206 314l77 66l217 -218h11l220 218l77 -66l-222 -314h-174z" />
    <glyph glyph-name="zdotaccent" unicode="&#x17c;" horiz-adv-x="981" 
d="M403 106h211q45 0 76.5 19t57 66t46.5 131h122v-322h-850v66l512 820h-199q-48 0 -77 -16t-52.5 -54t-54.5 -128h-122v304h842v-66zM628 1391v-245h-274v245h274z" />
    <glyph glyph-name="eng" unicode="&#x14b;" horiz-adv-x="1227" 
d="M783 555q0 71 -3 116.5t-9.5 74.5t-18 48.5t-25.5 32t-32 18.5t-46 6q-38 0 -79 -23.5t-69 -65t-28 -88.5v-385q0 -95 6 -132t24.5 -58.5t65.5 -32.5v-66h-483v66q48 13 66.5 34t25 57t6.5 131v411q0 74 -2.5 109.5t-12 57t-29 35t-67.5 23.5v68l274 8h126l-15 -144
l12 -3q62 55 109 86.5t98.5 50t108.5 18.5q82 0 136 -23.5t87.5 -68.5t48 -110t14.5 -151v-577q0 -93 -10.5 -160.5t-37.5 -117.5t-65 -81t-86.5 -46.5t-108.5 -15.5q-45 0 -90.5 4.5t-79.5 12.5v113q18 -6 41 -9.5t41 -3.5q43 0 64.5 17.5t32 59t10.5 118.5v586z" />
    <glyph glyph-name="eth" unicode="&#xf0;" horiz-adv-x="1171" 
d="M916 1331l-145 -74q150 -113 226.5 -286t76.5 -415q0 -291 -126 -431.5t-382 -140.5q-233 0 -355.5 122.5t-122.5 357.5q0 163 59 274.5t164 165t245 53.5q132 0 216 -66l12 7q-33 89 -77.5 157t-93.5 112l-283 -152l-54 97l244 129q-81 52 -207 93l41 101
q178 -37 315 -111l193 104zM387 477q0 -147 23.5 -233t66 -121t107.5 -35t106.5 40t62 125t20.5 226q0 190 -47 282t-143 92q-73 0 -116.5 -45t-61.5 -127.5t-18 -203.5z" />
    <glyph glyph-name="thorn" unicode="&#xfe;" horiz-adv-x="1211" 
d="M448 10v-189q0 -75 8 -106t28.5 -49t72.5 -30v-66h-498v66q47 14 65.5 31t26.5 47.5t8 106.5v1266q0 72 -1 110t-6 66t-16 44t-29.5 26t-60.5 19v66l279 14h123v-573l1 -1q55 53 99.5 83t97.5 48.5t113 18.5q178 0 267 -125.5t89 -375.5q0 -261 -117.5 -392t-347.5 -131
q-103 0 -202 26zM448 328q0 -123 42.5 -181.5t131.5 -58.5q92 0 140.5 96.5t48.5 275.5q0 197 -43 294t-134 97q-46 0 -88.5 -21t-70 -65t-27.5 -104v-333z" />
    <glyph glyph-name="A.c2sc" horiz-adv-x="1176" 
d="M651 0v66q50 10 70.5 28t20.5 53q0 25 -7 55.5t-19 69.5l-14 44h-373q-20 -52 -28 -84.5t-8 -61.5q0 -43 24.5 -70.5t67.5 -33.5v-66h-391v67q41 13 66 39t50 74.5t61 130.5l335 773h238l281 -843q11 -34 20.5 -58.5t20.5 -45.5t24 -35t29 -22.5t38 -13.5v-66h-506z
M368 420h304l-134 415z" />
    <glyph glyph-name="B.c2sc" horiz-adv-x="1218" 
d="M88 0v66q42 10 61 24.5t28 37t11.5 56t2.5 105.5v496q0 95 -6 131t-25 57.5t-71 34.5v66h545q112 0 173 -5.5t106.5 -17.5t83.5 -30.5t63 -44t38 -61.5t13 -80q0 -69 -26.5 -119.5t-71.5 -85.5t-113 -63v-10q113 -28 168 -91.5t55 -164.5q0 -65 -25 -118q-22 -47 -62 -81
q-40 -35 -106 -62q-51 -20 -119 -30q-77 -10 -217 -10h-506zM483 963v-352h89q70 0 116 12t75 37.5t42 58.5t13 85q0 82 -52.5 121.5t-164.5 39.5q-78 0 -118 -2zM483 504v-393q23 -2 75 -2q120 0 171 21.5t76 66t25 111.5q0 50 -15 87t-43 62t-67 36t-116 11h-106z" />
    <glyph glyph-name="C.c2sc" horiz-adv-x="1033" 
d="M949 1049v-242h-123q-33 92 -75.5 133t-115.5 41q-118 0 -177.5 -108.5t-59.5 -323.5q0 -233 56 -344.5t170 -111.5q51 0 88 20.5t63.5 58.5t51.5 106h123v-244q-99 -28 -180.5 -39t-192.5 -11q-159 0 -268 65.5t-163.5 188t-54.5 291.5t62 295.5t182 196t286 69.5
q87 0 164.5 -9.5t163.5 -31.5z" />
    <glyph glyph-name="D.c2sc" horiz-adv-x="1285" 
d="M556 1074q156 0 255.5 -21.5t170.5 -64t118 -102.5t72.5 -142.5t25.5 -191.5q0 -150 -51 -263q-49 -107 -143 -176q-90 -66 -218 -92q-102 -21 -254 -21h-444v66q42 10 61 24.5t28 37t11.5 56t2.5 105.5v496q0 95 -6 131t-25 57.5t-71 34.5v66h467zM483 963v-851
q33 -3 67 -3q172 0 258 107t86 323q0 140 -42 235.5t-119 143t-180 47.5q-47 0 -70 -2z" />
    <glyph glyph-name="E.c2sc" horiz-adv-x="1065" 
d="M88 0v66q42 10 61 24.5t28 37t11.5 56t2.5 105.5v496q0 95 -6 131t-25 57.5t-71 34.5v66h880v-257h-123q-13 36 -25 62.5t-24 40.5t-26.5 24.5t-34.5 15.5t-58 5h-195v-353h102q37 0 58 9t34 30.5t23 65.5h103v-319h-103q-10 40 -22.5 62t-32.5 32.5t-60 10.5h-102v-394
h204q39 0 62.5 8t43 27t37.5 54t35 96h125l-16 -294h-886z" />
    <glyph glyph-name="F.c2sc" horiz-adv-x="1014" 
d="M596 0h-508v66q42 10 61 24.5t28 37t11.5 56t2.5 105.5v496q0 95 -6 131t-25 57.5t-71 34.5v66h867v-257h-123q-13 36 -25 62.5t-24 40.5t-26.5 24.5t-34.5 15.5t-58 5h-182v-366h102q42 0 62.5 10.5t32.5 34t20 68.5h103v-336h-103q-7 40 -18.5 64.5t-32 37t-64.5 12.5
h-102v-201q0 -57 2 -88.5t5.5 -48.5t10 -31t17 -25t29.5 -18.5t49 -11.5v-66z" />
    <glyph glyph-name="G.c2sc" horiz-adv-x="1169" 
d="M1012 11l-122 -27l-69 55q-67 -34 -121.5 -44.5t-127.5 -10.5q-159 0 -267.5 66t-161 186t-52.5 286q0 174 63.5 302t188 197t298.5 69q102 0 183.5 -9.5t174.5 -32.5v-241h-123q-34 89 -82.5 131.5t-130.5 42.5q-137 0 -201 -109.5t-64 -332.5q0 -224 50.5 -335
t154.5 -111q57 0 90 38t33 106v48q0 55 -9.5 82t-31.5 44.5t-61 26.5v66h479v-66q-44 -13 -61 -34.5t-23.5 -58.5t-6.5 -130v-204z" />
    <glyph glyph-name="H.c2sc" horiz-adv-x="1335" 
d="M1144 289q0 -95 6 -131t25 -57.5t71 -34.5v-66h-495v66q30 7 47 16.5t26.5 22t16.5 32t9 54t2 98.5v218h-369v-218q0 -95 6 -131t24.5 -57.5t69.5 -34.5v-66h-495v66q42 10 61 24.5t28 37t11.5 56t2.5 105.5v496q0 95 -6 131t-25 57.5t-71 34.5v66h495v-66
q-30 -7 -47 -16.5t-26.5 -22t-16.5 -32t-9 -54t-2 -98.5v-168h369v168q0 74 -2.5 104t-10 53.5t-26.5 38.5t-61 27v66h495v-66q-28 -7 -45 -15.5t-27 -19.5t-15.5 -24.5t-9 -29t-5 -44.5t-1.5 -90v-496z" />
    <glyph glyph-name="I.c2sc" horiz-adv-x="674" 
d="M585 0h-497v66q42 10 61 24.5t28 37t11.5 56t2.5 105.5v496q0 95 -6 131t-25 57.5t-71 34.5v66h497v-66q-28 -7 -45 -15.5t-27 -19.5t-15.5 -24.5t-9 -29t-5 -44.5t-1.5 -90v-496q0 -95 6 -131t25 -57.5t71 -34.5v-66z" />
    <glyph glyph-name="J.c2sc" horiz-adv-x="658" 
d="M183 785q0 95 -6 131t-25 57.5t-71 34.5v66h497v-66q-28 -7 -45 -15.5t-27 -19.5t-15.5 -24.5t-9 -29t-5 -44.5t-1.5 -90v-591q0 -122 -21.5 -203t-70.5 -142t-135 -107t-173 -70l-48 117q67 28 98 56.5t44.5 71t13.5 118.5v750z" />
    <glyph glyph-name="K.c2sc" horiz-adv-x="1257" 
d="M585 0h-497v66q42 10 61 24.5t28 37t11.5 56t2.5 105.5v496q0 95 -6 131t-25 57.5t-71 34.5v66h497v-66q-28 -7 -45 -15.5t-27 -19.5t-15.5 -24.5t-9 -29t-5 -44.5t-1.5 -90v-183h16q44 0 68.5 8t51.5 28t86.5 81.5t85.5 96.5t35.5 62t9.5 59t-20 50t-58 21v66h479v-66
q-28 -2 -53 -14.5t-49.5 -33.5t-77.5 -76l-234 -243l317 -469q35 -51 65.5 -76.5t64.5 -32.5v-63h-514v66q27 3 44 14.5t17 35.5q0 26 -12 51t-48 81l-115 175q-26 40 -41.5 55t-30.5 20t-52 5h-35v-214q0 -95 6 -131t25 -57.5t71 -34.5v-66z" />
    <glyph glyph-name="L.c2sc" horiz-adv-x="997" 
d="M89 1074h497v-66q-28 -7 -45 -15.5t-27 -19.5t-15.5 -24.5t-9 -29t-5 -44.5t-1.5 -90v-674h153q40 0 65.5 9t47.5 34t41 70t26 109h125l-18 -333h-835v66q42 10 61 24.5t28 37t11.5 56t2.5 105.5v496q0 95 -6 131t-25 57.5t-71 34.5v66z" />
    <glyph glyph-name="M.c2sc" horiz-adv-x="1536" 
d="M988 1074h460v-66q-28 -7 -45 -15.5t-27 -19.5t-15.5 -24.5t-9 -29t-5 -44.5t-1.5 -90v-496q0 -95 6 -131t25 -57.5t71 -34.5v-66h-497v66q42 10 61 24.5t28 37t11.5 56t2.5 105.5v298q0 114 6 271h-13q-39 -115 -99 -259l-176 -429h-171l-162 422q-43 111 -95 266h-14
q7 -111 7 -259v-310q0 -95 6 -131t25 -57.5t71 -34.5v-66h-353v66q42 10 61 24.5t28 37t11.5 56t2.5 105.5v496q0 95 -6 131t-25 57.5t-71 34.5v66h461l212 -590z" />
    <glyph glyph-name="N.c2sc" horiz-adv-x="1243" 
d="M818 0l-384 616l-95 159h-10q7 -135 7 -302v-184q0 -95 6 -131t25 -57.5t71 -34.5v-66h-353v66q42 10 61 24.5t28 37t11.5 56t2.5 105.5v496q0 95 -6 131t-25 57.5t-71 34.5v66h383l443 -722h9q-7 132 -7 307v126q0 95 -6 131t-25 57.5t-71 34.5v66h353v-66
q-28 -7 -45 -15.5t-27 -19.5t-15.5 -24.5t-9 -29t-5 -44.5t-1.5 -90v-785h-244z" />
    <glyph glyph-name="O.c2sc" horiz-adv-x="1245" 
d="M609 -16q-160 0 -275 56.5t-179 179.5t-64 315q0 180 63.5 304t185 187.5t286.5 63.5q185 0 303 -65t171.5 -182.5t53.5 -283.5q0 -192 -67.5 -321t-189.5 -191.5t-288 -62.5zM397 557q0 -233 56.5 -348.5t171.5 -115.5q64 0 107 35t68.5 95t36 138t10.5 166
q0 166 -28.5 267t-77.5 144t-119 43q-116 0 -170.5 -103.5t-54.5 -320.5z" />
    <glyph glyph-name="P.c2sc" horiz-adv-x="1165" 
d="M650 1074q156 0 254 -30.5t145.5 -93.5t47.5 -168q0 -78 -28.5 -141.5t-89.5 -113.5t-145 -69.5t-192 -19.5q-97 0 -159 3v-152q0 -94 6.5 -131t25.5 -58.5t70 -33.5v-66h-497v66q42 10 61 24.5t28 37t11.5 56t2.5 105.5v496q0 95 -6 131t-25 57.5t-71 34.5v66h561z
M483 962v-416h87q100 0 146.5 26.5t67.5 71t21 117.5q0 60 -17.5 99.5t-47.5 62.5t-71 32.5t-89 9.5q-55 0 -97 -3z" />
    <glyph glyph-name="Q.c2sc" horiz-adv-x="1245" 
d="M821 15l40 -53q12 -15 24 -29t27 -28.5t29 -24t26.5 -14.5t27.5 -8t31 -3q32 0 53 5.5t42 18t51 37.5l65 -81q-67 -62 -116.5 -94t-97 -46t-108.5 -14q-65 0 -117 16t-102.5 57t-97.5 114l-78 121q-215 23 -322 161.5t-107 384.5q0 180 63.5 304t185 187.5t286.5 63.5
q185 0 303 -65t171.5 -182.5t53.5 -283.5q0 -214 -84.5 -352t-248.5 -192zM397 557q0 -233 56.5 -348.5t171.5 -115.5q64 0 107 35t68.5 95t36 138t10.5 166q0 166 -28.5 267t-77.5 144t-119 43q-116 0 -170.5 -103.5t-54.5 -320.5z" />
    <glyph glyph-name="R.c2sc" horiz-adv-x="1213" 
d="M483 446v-157q0 -57 2 -88.5t5.5 -48.5t10 -31t17 -25t29.5 -18.5t49 -11.5v-66h-508v66q42 10 61 24.5t28 37t11.5 56t2.5 105.5v496q0 95 -6 131t-25 57.5t-71 34.5v66h561q154 0 252.5 -30t146.5 -92.5t48 -167.5q0 -103 -61 -176t-189 -119v-10q46 -20 83.5 -56
t77.5 -106l69 -121q25 -45 44 -69t38.5 -38t57.5 -23v-66h-346q-51 71 -106 177l-73 140q-26 49 -43 74t-30.5 36t-28 15t-52.5 4h-55zM483 962v-411h87q62 0 105 11.5t72 37.5t43.5 64.5t14.5 98.5t-17.5 99t-47.5 62t-71 32t-89 9q-55 0 -97 -3z" />
    <glyph glyph-name="S.c2sc" horiz-adv-x="982" 
d="M226 293q24 -99 77.5 -149.5t148.5 -50.5q44 0 81 14.5t60 48t23 85.5q0 46 -19.5 78t-65 62t-149.5 75q-92 39 -152 82t-93 101t-33 135q0 100 54.5 171.5t153.5 108t226 36.5q99 0 184 -9t166 -24v-253h-136q-32 91 -78.5 134t-127.5 43q-70 0 -112.5 -34t-42.5 -93
q0 -48 22 -81t69.5 -62.5t143.5 -70.5q93 -40 152 -84.5t90.5 -102.5t31.5 -133q0 -92 -32 -156t-89 -104t-135.5 -58t-172.5 -18q-177 0 -382 47v262h137z" />
    <glyph glyph-name="T.c2sc" horiz-adv-x="1162" 
d="M57 1074h1048v-290h-123q-7 47 -24 86t-36 58.5t-42 28t-69 8.5h-84v-676q0 -57 2 -88.5t5.5 -48.5t10 -31t17 -25t29.5 -18.5t49 -11.5v-66h-518v66q30 5 49 13t30 18.5t17 24.5t9.5 30t5.5 45.5t2 91.5v676h-84q-47 0 -70 -8.5t-42.5 -29t-36 -60.5t-22.5 -83h-123v290
z" />
    <glyph glyph-name="U.c2sc" horiz-adv-x="1211" 
d="M838 785q0 95 -6 131t-25 57.5t-71 34.5v66h418v-66q-28 -7 -45 -15.5t-27 -19.5t-15.5 -24.5t-9 -29t-5 -44.5t-1.5 -90v-382q0 -129 -27 -204t-80 -123t-134 -70t-195 -22q-123 0 -209 24t-139 72.5t-78.5 120t-25.5 186.5v398q0 95 -6 131t-25 57.5t-71 34.5v66h497
v-66q-28 -7 -45 -15.5t-27 -19.5t-15.5 -24.5t-9 -29t-5 -44.5t-1.5 -90v-444q0 -83 16 -135.5t58 -82.5t117 -30q77 0 116.5 27.5t57.5 79t18 159.5v426z" />
    <glyph glyph-name="V.c2sc" horiz-adv-x="1147" 
d="M528 1074v-66q-47 -9 -69 -27t-22 -54q0 -25 7 -55.5t19 -69.5l163 -516l184 462q23 57 31.5 91.5t8.5 64.5q0 42 -24 69.5t-68 34.5v66h395v-67q-29 -9 -48 -23t-35 -36t-38.5 -64.5t-55.5 -120.5l-335 -773h-209l-283 843q-26 78 -43 108t-37.5 45.5t-51.5 21.5v66h511
z" />
    <glyph glyph-name="W.c2sc" horiz-adv-x="1731" 
d="M1063 -11l-202 728l-236 -728h-217l-259 844q-23 76 -39.5 107.5t-34.5 46t-48 21.5v66h500v-66q-47 -8 -70.5 -28.5t-23.5 -57.5q0 -18 5 -42t21 -78l141 -498l247 770h195l208 -770l152 443q19 56 27 92t8 64q0 42 -23.5 70t-68.5 35v66h385v-67q-23 -7 -37.5 -15
t-26 -20.5t-26 -37t-31.5 -64.5t-43 -108l-290 -773h-213z" />
    <glyph glyph-name="X.c2sc" horiz-adv-x="1136" 
d="M693 588l255 -372q23 -34 43 -60t41.5 -46.5t41.5 -30.5t41 -13v-66h-501v66q27 4 44 18t17 36q0 19 -8.5 36t-36.5 60l-120 179l-128 -162q-27 -34 -38.5 -57.5t-11.5 -47.5t18.5 -41t57.5 -21v-66h-387v66q36 9 78.5 44.5t104.5 108.5l234 278l-253 370
q-53 77 -83.5 106t-65.5 35v66h491v-66q-63 -13 -63 -56q0 -16 11 -38t34 -56l112 -168l104 134q33 43 48 70.5t15 48.5q0 28 -20.5 45.5t-55.5 19.5v66h387v-66q-25 -6 -50 -22.5t-55.5 -46t-88.5 -96.5z" />
    <glyph glyph-name="Y.c2sc" horiz-adv-x="1113" 
d="M396 403l-218 413q-62 117 -92.5 151.5t-66.5 40.5v66h507v-66q-35 -3 -54.5 -20t-19.5 -44q0 -23 9 -50.5t29 -64.5l143 -279l150 266q24 42 32.5 70.5t8.5 58.5q0 26 -15 42.5t-51 20.5v66h361v-66q-44 -12 -86 -57t-94 -132l-251 -414v-116q0 -57 2 -88.5t5.5 -48.5
t10 -31t17 -25t29.5 -18.5t49 -11.5v-66h-518v66q30 5 49 13t30 18.5t17 24.5t9.5 30t5.5 45.5t2 91.5v114z" />
    <glyph glyph-name="Z.c2sc" horiz-adv-x="1024" 
d="M410 111h246q45 0 76.5 19t57 66t46.5 131h123v-327h-893v66l548 897h-234q-48 0 -77 -16.5t-52 -54.5t-55 -128h-123v310h885v-66z" />
    <glyph glyph-name="Agrave.c2sc" horiz-adv-x="1176" 
d="M651 0v66q50 10 70.5 28t20.5 53q0 25 -7 55.5t-19 69.5l-14 44h-373q-20 -52 -28 -84.5t-8 -61.5q0 -43 24.5 -70.5t67.5 -33.5v-66h-391v67q41 13 66 39t50 74.5t61 130.5l335 773h238l281 -843q11 -34 20.5 -58.5t20.5 -45.5t24 -35t29 -22.5t38 -13.5v-66h-506z
M368 420h304l-134 415zM549 1556l218 -322l-80 -66l-347 322v66h209z" />
    <glyph glyph-name="Aacute.c2sc" horiz-adv-x="1176" 
d="M651 0v66q50 10 70.5 28t20.5 53q0 25 -7 55.5t-19 69.5l-14 44h-373q-20 -52 -28 -84.5t-8 -61.5q0 -43 24.5 -70.5t67.5 -33.5v-66h-391v67q41 13 66 39t50 74.5t61 130.5l335 773h238l281 -843q11 -34 20.5 -58.5t20.5 -45.5t24 -35t29 -22.5t38 -13.5v-66h-506z
M368 420h304l-134 415zM890 1556v-66l-347 -322l-80 66l218 322h209z" />
    <glyph glyph-name="Acircumflex.c2sc" horiz-adv-x="1176" 
d="M651 0v66q50 10 70.5 28t20.5 53q0 25 -7 55.5t-19 69.5l-14 44h-373q-20 -52 -28 -84.5t-8 -61.5q0 -43 24.5 -70.5t67.5 -33.5v-66h-391v67q41 13 66 39t50 74.5t61 130.5l335 773h238l281 -843q11 -34 20.5 -58.5t20.5 -45.5t24 -35t29 -22.5t38 -13.5v-66h-506z
M368 420h304l-134 415zM710 1549l206 -314l-77 -66l-217 218h-11l-220 -218l-77 66l222 314h174z" />
    <glyph glyph-name="Atilde.c2sc" horiz-adv-x="1176" 
d="M651 0v66q50 10 70.5 28t20.5 53q0 25 -7 55.5t-19 69.5l-14 44h-373q-20 -52 -28 -84.5t-8 -61.5q0 -43 24.5 -70.5t67.5 -33.5v-66h-391v67q41 13 66 39t50 74.5t61 130.5l335 773h238l281 -843q11 -34 20.5 -58.5t20.5 -45.5t24 -35t29 -22.5t38 -13.5v-66h-506z
M368 420h304l-134 415zM873 1483l94 -41q-57 -118 -110 -174.5t-109 -56.5q-37 0 -67.5 10.5t-87.5 49.5q-32 22 -49 31.5t-33.5 14.5t-33.5 5q-23 0 -40.5 -8.5t-38 -33t-43.5 -69.5l-93 41q47 91 78.5 136t66.5 70t78 25q24 0 45.5 -5t41.5 -15.5t57 -35.5t54.5 -35
t34 -15t38.5 -5q35 0 61.5 26.5t55.5 84.5z" />
    <glyph glyph-name="Adieresis.c2sc" horiz-adv-x="1176" 
d="M651 0v66q50 10 70.5 28t20.5 53q0 25 -7 55.5t-19 69.5l-14 44h-373q-20 -52 -28 -84.5t-8 -61.5q0 -43 24.5 -70.5t67.5 -33.5v-66h-391v67q41 13 66 39t50 74.5t61 130.5l335 773h238l281 -843q11 -34 20.5 -58.5t20.5 -45.5t24 -35t29 -22.5t38 -13.5v-66h-506z
M368 420h304l-134 415zM536 1460v-220h-209v220h209zM902 1460v-220h-209v220h209z" />
    <glyph glyph-name="Amacron.c2sc" horiz-adv-x="1176" 
d="M651 0v66q50 10 70.5 28t20.5 53q0 25 -7 55.5t-19 69.5l-14 44h-373q-20 -52 -28 -84.5t-8 -61.5q0 -43 24.5 -70.5t67.5 -33.5v-66h-391v67q41 13 66 39t50 74.5t61 130.5l335 773h238l281 -843q11 -34 20.5 -58.5t20.5 -45.5t24 -35t29 -22.5t38 -13.5v-66h-506z
M368 420h304l-134 415zM897 1273h-564v154h564v-154z" />
    <glyph glyph-name="Abreve.c2sc" horiz-adv-x="1176" 
d="M651 0v66q50 10 70.5 28t20.5 53q0 25 -7 55.5t-19 69.5l-14 44h-373q-20 -52 -28 -84.5t-8 -61.5q0 -43 24.5 -70.5t67.5 -33.5v-66h-391v67q41 13 66 39t50 74.5t61 130.5l335 773h238l281 -843q11 -34 20.5 -58.5t20.5 -45.5t24 -35t29 -22.5t38 -13.5v-66h-506z
M368 420h304l-134 415zM932 1491q-34 -139 -112.5 -210t-212.5 -71q-121 0 -200.5 72t-108.5 209l97 30q34 -78 83.5 -114.5t132.5 -36.5q90 0 142 37.5t82 113.5z" />
    <glyph glyph-name="Aring.c2sc" horiz-adv-x="1176" 
d="M651 0v66q50 10 70.5 28t20.5 53q0 25 -7 55.5t-19 69.5l-14 44h-373q-20 -52 -28 -84.5t-8 -61.5q0 -43 24.5 -70.5t67.5 -33.5v-66h-391v67q41 13 66 39t50 74.5t61 130.5l335 773h238l281 -843q11 -34 20.5 -58.5t20.5 -45.5t24 -35t29 -22.5t38 -13.5v-66h-506z
M368 420h304l-134 415zM609 1165q-113 0 -172 53t-59 154q0 70 31.5 118.5t87 72t125.5 23.5q113 0 171 -52.5t58 -152.5q0 -105 -63.5 -160.5t-178.5 -55.5zM498 1379q0 -65 30 -101t89 -36q55 0 84.5 33.5t29.5 94.5q0 67 -31 103t-85 36q-58 0 -87.5 -34t-29.5 -96z" />
    <glyph glyph-name="Aringacute.c2sc" horiz-adv-x="1176" 
d="M651 0v66q50 10 70.5 28t20.5 53q0 25 -7 55.5t-19 69.5l-14 44h-373q-20 -52 -28 -84.5t-8 -61.5q0 -43 24.5 -70.5t67.5 -33.5v-66h-391v67q41 13 66 39t50 74.5t61 130.5l335 773h238l281 -843q11 -34 20.5 -58.5t20.5 -45.5t24 -35t29 -22.5t38 -13.5v-66h-506z
M368 420h304l-134 415zM609 1122q-113 0 -172 53t-59 154q0 70 31.5 118.5t87 72t125.5 23.5q113 0 171 -52.5t58 -152.5q0 -105 -63.5 -160.5t-178.5 -55.5zM498 1336q0 -65 30 -101t89 -36q55 0 84.5 33.5t29.5 94.5q0 67 -31 103t-85 36q-58 0 -87.5 -34t-29.5 -96z
M890 1946v-66l-347 -322l-80 66l218 322h209z" />
    <glyph glyph-name="Aogonek.c2sc" horiz-adv-x="1176" 
d="M1054 0q-58 -54 -87.5 -112t-29.5 -111q0 -49 23.5 -74t64.5 -25q30 0 52.5 10t40.5 22l38 -86q-36 -25 -82 -42.5t-98 -17.5q-40 0 -77.5 9.5t-66.5 30t-46.5 55.5t-17.5 85q0 69 43.5 135.5t126.5 120.5h-287v66q50 10 70.5 28t20.5 53q0 25 -7 55.5t-19 69.5l-14 44
h-373q-20 -52 -28 -84.5t-8 -61.5q0 -43 24.5 -70.5t67.5 -33.5v-66h-391v67q41 13 66 39t50 74.5t61 130.5l335 773h238l281 -843q11 -34 20.5 -58.5t20.5 -45.5t24 -35t29 -22.5t38 -13.5v-66h-103zM368 420h304l-134 415z" />
    <glyph glyph-name="AE.c2sc" horiz-adv-x="1591" 
d="M1011 503l29 -394h173q39 0 62.5 8t43 27t37.5 54t35 96h125l-16 -294h-856v66q51 11 74 37.5t23 64.5q0 49 -4 104l-3 44h-359q-34 -64 -46.5 -97.5t-12.5 -58.5q0 -38 20.5 -62.5t68.5 -31.5v-66h-414v67q28 9 45.5 20t38.5 32.5t50.5 65t78.5 123.5l458 766h833v-257
h-123q-13 36 -25 62.5t-24 40.5t-26.5 24.5t-34.5 15.5t-58 5h-226l25 -353h116q34 0 53 7.5t31 27.5t23 70h103v-319h-103q-12 49 -24 68.5t-29.5 28t-53.5 8.5h-108zM434 420h293l-13 184q-6 90 -13 270h-10z" />
    <glyph glyph-name="AEacute.c2sc" horiz-adv-x="1591" 
d="M1011 503l29 -394h173q39 0 62.5 8t43 27t37.5 54t35 96h125l-16 -294h-856v66q51 11 74 37.5t23 64.5q0 49 -4 104l-3 44h-359q-34 -64 -46.5 -97.5t-12.5 -58.5q0 -38 20.5 -62.5t68.5 -31.5v-66h-414v67q28 9 45.5 20t38.5 32.5t50.5 65t78.5 123.5l458 766h833v-257
h-123q-13 36 -25 62.5t-24 40.5t-26.5 24.5t-34.5 15.5t-58 5h-226l25 -353h116q34 0 53 7.5t31 27.5t23 70h103v-319h-103q-12 49 -24 68.5t-29.5 28t-53.5 8.5h-108zM434 420h293l-13 184q-6 90 -13 270h-10zM1271 1556v-66l-347 -322l-80 66l218 322h209z" />
    <glyph glyph-name="Cacute.c2sc" horiz-adv-x="1033" 
d="M949 1049v-242h-123q-33 92 -75.5 133t-115.5 41q-118 0 -177.5 -108.5t-59.5 -323.5q0 -233 56 -344.5t170 -111.5q51 0 88 20.5t63.5 58.5t51.5 106h123v-244q-99 -28 -180.5 -39t-192.5 -11q-159 0 -268 65.5t-163.5 188t-54.5 291.5t62 295.5t182 196t286 69.5
q87 0 164.5 -9.5t163.5 -31.5zM858 1556v-66l-347 -322l-80 66l218 322h209z" />
    <glyph glyph-name="Ccircumflex.c2sc" horiz-adv-x="1033" 
d="M949 1049v-242h-123q-33 92 -75.5 133t-115.5 41q-118 0 -177.5 -108.5t-59.5 -323.5q0 -233 56 -344.5t170 -111.5q51 0 88 20.5t63.5 58.5t51.5 106h123v-244q-99 -28 -180.5 -39t-192.5 -11q-159 0 -268 65.5t-163.5 188t-54.5 291.5t62 295.5t182 196t286 69.5
q87 0 164.5 -9.5t163.5 -31.5zM677 1549l206 -314l-77 -66l-217 218h-11l-220 -218l-77 66l222 314h174z" />
    <glyph glyph-name="Ccaron.c2sc" horiz-adv-x="1033" 
d="M949 1049v-242h-123q-33 92 -75.5 133t-115.5 41q-118 0 -177.5 -108.5t-59.5 -323.5q0 -233 56 -344.5t170 -111.5q51 0 88 20.5t63.5 58.5t51.5 106h123v-244q-99 -28 -180.5 -39t-192.5 -11q-159 0 -268 65.5t-163.5 188t-54.5 291.5t62 295.5t182 196t286 69.5
q87 0 164.5 -9.5t163.5 -31.5zM487 1183l-206 314l77 66l217 -218h11l220 218l77 -66l-222 -314h-174z" />
    <glyph glyph-name="Cdotaccent.c2sc" horiz-adv-x="1033" 
d="M949 1049v-242h-123q-33 92 -75.5 133t-115.5 41q-118 0 -177.5 -108.5t-59.5 -323.5q0 -233 56 -344.5t170 -111.5q51 0 88 20.5t63.5 58.5t51.5 106h123v-244q-99 -28 -180.5 -39t-192.5 -11q-159 0 -268 65.5t-163.5 188t-54.5 291.5t62 295.5t182 196t286 69.5
q87 0 164.5 -9.5t163.5 -31.5zM719 1472v-245h-274v245h274z" />
    <glyph glyph-name="Ccedilla.c2sc" horiz-adv-x="1033" 
d="M949 1049v-242h-123q-33 92 -75.5 133t-115.5 41q-118 0 -177.5 -108.5t-59.5 -323.5q0 -233 56 -344.5t170 -111.5q51 0 88 20.5t63.5 58.5t51.5 106h123v-244q-73 -20 -122 -29t-100 -14l-84 -59q17 -23 25.5 -56.5t8.5 -72.5q0 -102 -91.5 -163.5t-257.5 -69.5l-16 95
q82 12 119.5 40t37.5 87q0 37 -5 63v43l132 86h-20q-159 0 -268 65.5t-163.5 188t-54.5 291.5t62 295.5t182 196t286 69.5q87 0 164.5 -9.5t163.5 -31.5z" />
    <glyph glyph-name="Dcaron.c2sc" horiz-adv-x="1285" 
d="M556 1074q156 0 255.5 -21.5t170.5 -64t118 -102.5t72.5 -142.5t25.5 -191.5q0 -150 -51 -263q-49 -107 -143 -176q-90 -66 -218 -92q-102 -21 -254 -21h-444v66q42 10 61 24.5t28 37t11.5 56t2.5 105.5v496q0 95 -6 131t-25 57.5t-71 34.5v66h467zM483 963v-851
q33 -3 67 -3q172 0 258 107t86 323q0 140 -42 235.5t-119 143t-180 47.5q-47 0 -70 -2zM547 1183l-206 314l77 66l217 -218h11l220 218l77 -66l-222 -314h-174z" />
    <glyph glyph-name="Dcroat.c2sc" horiz-adv-x="1294" 
d="M565 1074q156 0 255.5 -21.5t170.5 -64t118 -102.5t72.5 -142.5t25.5 -191.5q0 -150 -51 -263q-49 -107 -143 -176q-90 -66 -218 -92q-102 -21 -254 -21h-444v66q42 10 61 24.5t28 37t11.5 56t2.5 105.5v217h-146v112h146v167q0 95 -6 131t-25 57.5t-71 34.5v66h467z
M723 506h-231v-394q33 -3 67 -3q172 0 258 107t86 323q0 140 -42 235.5t-119 143t-180 47.5q-47 0 -70 -2v-345h230z" />
    <glyph glyph-name="Egrave.c2sc" horiz-adv-x="1065" 
d="M88 0v66q42 10 61 24.5t28 37t11.5 56t2.5 105.5v496q0 95 -6 131t-25 57.5t-71 34.5v66h880v-257h-123q-13 36 -25 62.5t-24 40.5t-26.5 24.5t-34.5 15.5t-58 5h-195v-353h102q37 0 58 9t34 30.5t23 65.5h103v-319h-103q-10 40 -22.5 62t-32.5 32.5t-60 10.5h-102v-394
h204q39 0 62.5 8t43 27t37.5 54t35 96h125l-16 -294h-886zM476 1556l218 -322l-80 -66l-347 322v66h209z" />
    <glyph glyph-name="Eacute.c2sc" horiz-adv-x="1065" 
d="M88 0v66q42 10 61 24.5t28 37t11.5 56t2.5 105.5v496q0 95 -6 131t-25 57.5t-71 34.5v66h880v-257h-123q-13 36 -25 62.5t-24 40.5t-26.5 24.5t-34.5 15.5t-58 5h-195v-353h102q37 0 58 9t34 30.5t23 65.5h103v-319h-103q-10 40 -22.5 62t-32.5 32.5t-60 10.5h-102v-394
h204q39 0 62.5 8t43 27t37.5 54t35 96h125l-16 -294h-886zM818 1556v-66l-347 -322l-80 66l218 322h209z" />
    <glyph glyph-name="Ecircumflex.c2sc" horiz-adv-x="1065" 
d="M88 0v66q42 10 61 24.5t28 37t11.5 56t2.5 105.5v496q0 95 -6 131t-25 57.5t-71 34.5v66h880v-257h-123q-13 36 -25 62.5t-24 40.5t-26.5 24.5t-34.5 15.5t-58 5h-195v-353h102q37 0 58 9t34 30.5t23 65.5h103v-319h-103q-10 40 -22.5 62t-32.5 32.5t-60 10.5h-102v-394
h204q39 0 62.5 8t43 27t37.5 54t35 96h125l-16 -294h-886zM637 1549l206 -314l-77 -66l-217 218h-11l-220 -218l-77 66l222 314h174z" />
    <glyph glyph-name="Ecaron.c2sc" horiz-adv-x="1065" 
d="M88 0v66q42 10 61 24.5t28 37t11.5 56t2.5 105.5v496q0 95 -6 131t-25 57.5t-71 34.5v66h880v-257h-123q-13 36 -25 62.5t-24 40.5t-26.5 24.5t-34.5 15.5t-58 5h-195v-353h102q37 0 58 9t34 30.5t23 65.5h103v-319h-103q-10 40 -22.5 62t-32.5 32.5t-60 10.5h-102v-394
h204q39 0 62.5 8t43 27t37.5 54t35 96h125l-16 -294h-886zM447 1183l-206 314l77 66l217 -218h11l220 218l77 -66l-222 -314h-174z" />
    <glyph glyph-name="Edieresis.c2sc" horiz-adv-x="1065" 
d="M88 0v66q42 10 61 24.5t28 37t11.5 56t2.5 105.5v496q0 95 -6 131t-25 57.5t-71 34.5v66h880v-257h-123q-13 36 -25 62.5t-24 40.5t-26.5 24.5t-34.5 15.5t-58 5h-195v-353h102q37 0 58 9t34 30.5t23 65.5h103v-319h-103q-10 40 -22.5 62t-32.5 32.5t-60 10.5h-102v-394
h204q39 0 62.5 8t43 27t37.5 54t35 96h125l-16 -294h-886zM464 1460v-220h-209v220h209zM830 1460v-220h-209v220h209z" />
    <glyph glyph-name="Emacron.c2sc" horiz-adv-x="1065" 
d="M88 0v66q42 10 61 24.5t28 37t11.5 56t2.5 105.5v496q0 95 -6 131t-25 57.5t-71 34.5v66h880v-257h-123q-13 36 -25 62.5t-24 40.5t-26.5 24.5t-34.5 15.5t-58 5h-195v-353h102q37 0 58 9t34 30.5t23 65.5h103v-319h-103q-10 40 -22.5 62t-32.5 32.5t-60 10.5h-102v-394
h204q39 0 62.5 8t43 27t37.5 54t35 96h125l-16 -294h-886zM824 1273h-564v154h564v-154z" />
    <glyph glyph-name="Ebreve.c2sc" horiz-adv-x="1065" 
d="M88 0v66q42 10 61 24.5t28 37t11.5 56t2.5 105.5v496q0 95 -6 131t-25 57.5t-71 34.5v66h880v-257h-123q-13 36 -25 62.5t-24 40.5t-26.5 24.5t-34.5 15.5t-58 5h-195v-353h102q37 0 58 9t34 30.5t23 65.5h103v-319h-103q-10 40 -22.5 62t-32.5 32.5t-60 10.5h-102v-394
h204q39 0 62.5 8t43 27t37.5 54t35 96h125l-16 -294h-886zM859 1491q-34 -139 -112.5 -210t-212.5 -71q-121 0 -200.5 72t-108.5 209l97 30q34 -78 83.5 -114.5t132.5 -36.5q90 0 142 37.5t82 113.5z" />
    <glyph glyph-name="Edotaccent.c2sc" horiz-adv-x="1065" 
d="M88 0v66q42 10 61 24.5t28 37t11.5 56t2.5 105.5v496q0 95 -6 131t-25 57.5t-71 34.5v66h880v-257h-123q-13 36 -25 62.5t-24 40.5t-26.5 24.5t-34.5 15.5t-58 5h-195v-353h102q37 0 58 9t34 30.5t23 65.5h103v-319h-103q-10 40 -22.5 62t-32.5 32.5t-60 10.5h-102v-394
h204q39 0 62.5 8t43 27t37.5 54t35 96h125l-16 -294h-886zM679 1472v-245h-274v245h274z" />
    <glyph glyph-name="Eogonek.c2sc" horiz-adv-x="1065" 
d="M88 0v66q42 10 61 24.5t28 37t11.5 56t2.5 105.5v496q0 95 -6 131t-25 57.5t-71 34.5v66h880v-257h-123q-13 36 -25 62.5t-24 40.5t-26.5 24.5t-34.5 15.5t-58 5h-195v-353h102q37 0 58 9t34 30.5t23 65.5h103v-319h-103q-10 40 -22.5 62t-32.5 32.5t-60 10.5h-102v-394
h204q39 0 62.5 8t43 27t37.5 54t35 96h125l-16 -294h-83q-58 -54 -87.5 -112t-29.5 -111q0 -49 23.5 -74t64.5 -25q30 0 52.5 10t40.5 22l38 -86q-36 -25 -82 -42.5t-98 -17.5q-40 0 -77.5 9.5t-66.5 30t-46.5 55.5t-17.5 85q0 69 43.5 135.5t126.5 120.5h-687z" />
    <glyph glyph-name="Gcircumflex.c2sc" horiz-adv-x="1169" 
d="M1012 11l-122 -27l-69 55q-67 -34 -121.5 -44.5t-127.5 -10.5q-159 0 -267.5 66t-161 186t-52.5 286q0 174 63.5 302t188 197t298.5 69q102 0 183.5 -9.5t174.5 -32.5v-241h-123q-34 89 -82.5 131.5t-130.5 42.5q-137 0 -201 -109.5t-64 -332.5q0 -224 50.5 -335
t154.5 -111q57 0 90 38t33 106v48q0 55 -9.5 82t-31.5 44.5t-61 26.5v66h479v-66q-44 -13 -61 -34.5t-23.5 -58.5t-6.5 -130v-204zM679 1549l206 -314l-77 -66l-217 218h-11l-220 -218l-77 66l222 314h174z" />
    <glyph glyph-name="Gbreve.c2sc" horiz-adv-x="1169" 
d="M1012 11l-122 -27l-69 55q-67 -34 -121.5 -44.5t-127.5 -10.5q-159 0 -267.5 66t-161 186t-52.5 286q0 174 63.5 302t188 197t298.5 69q102 0 183.5 -9.5t174.5 -32.5v-241h-123q-34 89 -82.5 131.5t-130.5 42.5q-137 0 -201 -109.5t-64 -332.5q0 -224 50.5 -335
t154.5 -111q57 0 90 38t33 106v48q0 55 -9.5 82t-31.5 44.5t-61 26.5v66h479v-66q-44 -13 -61 -34.5t-23.5 -58.5t-6.5 -130v-204zM901 1491q-34 -139 -112.5 -210t-212.5 -71q-121 0 -200.5 72t-108.5 209l97 30q34 -78 83.5 -114.5t132.5 -36.5q90 0 142 37.5t82 113.5z
" />
    <glyph glyph-name="Gdotaccent.c2sc" horiz-adv-x="1169" 
d="M1012 11l-122 -27l-69 55q-67 -34 -121.5 -44.5t-127.5 -10.5q-159 0 -267.5 66t-161 186t-52.5 286q0 174 63.5 302t188 197t298.5 69q102 0 183.5 -9.5t174.5 -32.5v-241h-123q-34 89 -82.5 131.5t-130.5 42.5q-137 0 -201 -109.5t-64 -332.5q0 -224 50.5 -335
t154.5 -111q57 0 90 38t33 106v48q0 55 -9.5 82t-31.5 44.5t-61 26.5v66h479v-66q-44 -13 -61 -34.5t-23.5 -58.5t-6.5 -130v-204zM721 1472v-245h-274v245h274z" />
    <glyph glyph-name="uni0122.c2sc" horiz-adv-x="1169" 
d="M1012 11l-122 -27l-69 55q-67 -34 -121.5 -44.5t-127.5 -10.5q-159 0 -267.5 66t-161 186t-52.5 286q0 174 63.5 302t188 197t298.5 69q102 0 183.5 -9.5t174.5 -32.5v-241h-123q-34 89 -82.5 131.5t-130.5 42.5q-137 0 -201 -109.5t-64 -332.5q0 -224 50.5 -335
t154.5 -111q57 0 90 38t33 106v48q0 55 -9.5 82t-31.5 44.5t-61 26.5v66h479v-66q-44 -13 -61 -34.5t-23.5 -58.5t-6.5 -130v-204zM720 -102q17 -42 17 -95q0 -102 -91.5 -163.5t-257.5 -69.5l-16 95q63 10 95 25t47 42t15 73t-8 93h199z" />
    <glyph glyph-name="Hcircumflex.c2sc" horiz-adv-x="1335" 
d="M1144 289q0 -95 6 -131t25 -57.5t71 -34.5v-66h-495v66q30 7 47 16.5t26.5 22t16.5 32t9 54t2 98.5v218h-369v-218q0 -95 6 -131t24.5 -57.5t69.5 -34.5v-66h-495v66q42 10 61 24.5t28 37t11.5 56t2.5 105.5v496q0 95 -6 131t-25 57.5t-71 34.5v66h495v-66
q-30 -7 -47 -16.5t-26.5 -22t-16.5 -32t-9 -54t-2 -98.5v-168h369v168q0 74 -2.5 104t-10 53.5t-26.5 38.5t-61 27v66h495v-66q-28 -7 -45 -15.5t-27 -19.5t-15.5 -24.5t-9 -29t-5 -44.5t-1.5 -90v-496zM762 1549l206 -314l-77 -66l-217 218h-11l-220 -218l-77 66l222 314
h174z" />
    <glyph glyph-name="Hbar.c2sc" horiz-adv-x="1347" 
d="M1156 289q0 -95 6 -131t25 -57.5t71 -34.5v-66h-495v66q30 7 47 16.5t26.5 22t16.5 32t9 54t2 98.5v87h-381v-87q0 -95 6 -131t24.5 -57.5t69.5 -34.5v-66h-495v66q42 10 61 24.5t28 37t11.5 56t2.5 105.5v496q0 95 -6 131t-25 57.5t-71 34.5v66h495v-66
q-30 -7 -47 -16.5t-26.5 -22t-16.5 -32t-9 -54t-2 -98.5v-34h381v34q0 74 -2.5 104t-10 53.5t-26.5 38.5t-61 27v66h495v-66q-28 -7 -45 -15.5t-27 -19.5t-15.5 -24.5t-9 -29t-5 -44.5t-1.5 -90v-496zM483 645v-163h381v163h-381z" />
    <glyph glyph-name="Igrave.c2sc" horiz-adv-x="674" 
d="M585 0h-497v66q42 10 61 24.5t28 37t11.5 56t2.5 105.5v496q0 95 -6 131t-25 57.5t-71 34.5v66h497v-66q-28 -7 -45 -15.5t-27 -19.5t-15.5 -24.5t-9 -29t-5 -44.5t-1.5 -90v-496q0 -95 6 -131t25 -57.5t71 -34.5v-66zM271 1556l218 -322l-80 -66l-347 322v66h209z" />
    <glyph glyph-name="Iacute.c2sc" horiz-adv-x="674" 
d="M585 0h-497v66q42 10 61 24.5t28 37t11.5 56t2.5 105.5v496q0 95 -6 131t-25 57.5t-71 34.5v66h497v-66q-28 -7 -45 -15.5t-27 -19.5t-15.5 -24.5t-9 -29t-5 -44.5t-1.5 -90v-496q0 -95 6 -131t25 -57.5t71 -34.5v-66zM612 1556v-66l-347 -322l-80 66l218 322h209z" />
    <glyph glyph-name="Icircumflex.c2sc" horiz-adv-x="674" 
d="M585 0h-497v66q42 10 61 24.5t28 37t11.5 56t2.5 105.5v496q0 95 -6 131t-25 57.5t-71 34.5v66h497v-66q-28 -7 -45 -15.5t-27 -19.5t-15.5 -24.5t-9 -29t-5 -44.5t-1.5 -90v-496q0 -95 6 -131t25 -57.5t71 -34.5v-66zM432 1549l206 -314l-77 -66l-217 218h-11l-220 -218
l-77 66l222 314h174z" />
    <glyph glyph-name="Itilde.c2sc" horiz-adv-x="674" 
d="M585 0h-497v66q42 10 61 24.5t28 37t11.5 56t2.5 105.5v496q0 95 -6 131t-25 57.5t-71 34.5v66h497v-66q-28 -7 -45 -15.5t-27 -19.5t-15.5 -24.5t-9 -29t-5 -44.5t-1.5 -90v-496q0 -95 6 -131t25 -57.5t71 -34.5v-66zM596 1483l94 -41q-57 -118 -110 -174.5t-109 -56.5
q-37 0 -67.5 10.5t-87.5 49.5q-32 22 -49 31.5t-33.5 14.5t-33.5 5q-23 0 -40.5 -8.5t-38 -33t-43.5 -69.5l-93 41q47 91 78.5 136t66.5 70t78 25q24 0 45.5 -5t41.5 -15.5t57 -35.5t54.5 -35t34 -15t38.5 -5q35 0 61.5 26.5t55.5 84.5z" />
    <glyph glyph-name="Idieresis.c2sc" horiz-adv-x="674" 
d="M585 0h-497v66q42 10 61 24.5t28 37t11.5 56t2.5 105.5v496q0 95 -6 131t-25 57.5t-71 34.5v66h497v-66q-28 -7 -45 -15.5t-27 -19.5t-15.5 -24.5t-9 -29t-5 -44.5t-1.5 -90v-496q0 -95 6 -131t25 -57.5t71 -34.5v-66zM259 1460v-220h-209v220h209zM625 1460v-220h-209
v220h209z" />
    <glyph glyph-name="Imacron.c2sc" horiz-adv-x="674" 
d="M585 0h-497v66q42 10 61 24.5t28 37t11.5 56t2.5 105.5v496q0 95 -6 131t-25 57.5t-71 34.5v66h497v-66q-28 -7 -45 -15.5t-27 -19.5t-15.5 -24.5t-9 -29t-5 -44.5t-1.5 -90v-496q0 -95 6 -131t25 -57.5t71 -34.5v-66zM619 1273h-564v154h564v-154z" />
    <glyph glyph-name="Ibreve.c2sc" horiz-adv-x="674" 
d="M585 0h-497v66q42 10 61 24.5t28 37t11.5 56t2.5 105.5v496q0 95 -6 131t-25 57.5t-71 34.5v66h497v-66q-28 -7 -45 -15.5t-27 -19.5t-15.5 -24.5t-9 -29t-5 -44.5t-1.5 -90v-496q0 -95 6 -131t25 -57.5t71 -34.5v-66zM654 1491q-34 -139 -112.5 -210t-212.5 -71
q-121 0 -200.5 72t-108.5 209l97 30q34 -78 83.5 -114.5t132.5 -36.5q90 0 142 37.5t82 113.5z" />
    <glyph glyph-name="Idotaccent.c2sc" horiz-adv-x="674" 
d="M585 0h-497v66q42 10 61 24.5t28 37t11.5 56t2.5 105.5v496q0 95 -6 131t-25 57.5t-71 34.5v66h497v-66q-28 -7 -45 -15.5t-27 -19.5t-15.5 -24.5t-9 -29t-5 -44.5t-1.5 -90v-496q0 -95 6 -131t25 -57.5t71 -34.5v-66zM474 1472v-245h-274v245h274z" />
    <glyph glyph-name="Iogonek.c2sc" horiz-adv-x="674" 
d="M585 0h-102q-58 -54 -87.5 -112t-29.5 -111q0 -49 23.5 -74t64.5 -25q30 0 52.5 10t40.5 22l38 -86q-36 -25 -82 -42.5t-98 -17.5q-40 0 -77.5 9.5t-66.5 30t-46.5 55.5t-17.5 85q0 69 43.5 135.5t126.5 120.5h-279v66q42 10 61 24.5t28 37t11.5 56t2.5 105.5v496
q0 95 -6 131t-25 57.5t-71 34.5v66h497v-66q-28 -7 -45 -15.5t-27 -19.5t-15.5 -24.5t-9 -29t-5 -44.5t-1.5 -90v-496q0 -95 6 -131t25 -57.5t71 -34.5v-66z" />
    <glyph glyph-name="IJ.c2sc" horiz-adv-x="1332" 
d="M585 0h-497v66q42 10 61 24.5t28 37t11.5 56t2.5 105.5v496q0 95 -6 131t-25 57.5t-71 34.5v66h497v-66q-28 -7 -45 -15.5t-27 -19.5t-15.5 -24.5t-9 -29t-5 -44.5t-1.5 -90v-496q0 -95 6 -131t25 -57.5t71 -34.5v-66zM857 785q0 95 -6 131t-25 57.5t-71 34.5v66h497v-66
q-28 -7 -45 -15.5t-27 -19.5t-15.5 -24.5t-9 -29t-5 -44.5t-1.5 -90v-591q0 -122 -21.5 -203t-70.5 -142t-135 -107t-173 -70l-48 117q67 28 98 56.5t44.5 71t13.5 118.5v750z" />
    <glyph glyph-name="Jcircumflex.c2sc" horiz-adv-x="658" 
d="M183 785q0 95 -6 131t-25 57.5t-71 34.5v66h497v-66q-28 -7 -45 -15.5t-27 -19.5t-15.5 -24.5t-9 -29t-5 -44.5t-1.5 -90v-591q0 -122 -21.5 -203t-70.5 -142t-135 -107t-173 -70l-48 117q67 28 98 56.5t44.5 71t13.5 118.5v750zM424 1549l206 -314l-77 -66l-217 218h-11
l-220 -218l-77 66l222 314h174z" />
    <glyph glyph-name="uni0136.c2sc" horiz-adv-x="1257" 
d="M585 0h-497v66q42 10 61 24.5t28 37t11.5 56t2.5 105.5v496q0 95 -6 131t-25 57.5t-71 34.5v66h497v-66q-28 -7 -45 -15.5t-27 -19.5t-15.5 -24.5t-9 -29t-5 -44.5t-1.5 -90v-183h16q44 0 68.5 8t51.5 28t86.5 81.5t85.5 96.5t35.5 62t9.5 59t-20 50t-58 21v66h479v-66
q-28 -2 -53 -14.5t-49.5 -33.5t-77.5 -76l-234 -243l317 -469q35 -51 65.5 -76.5t64.5 -32.5v-63h-514v66q27 3 44 14.5t17 35.5q0 26 -12 51t-48 81l-115 175q-26 40 -41.5 55t-30.5 20t-52 5h-35v-214q0 -95 6 -131t25 -57.5t71 -34.5v-66zM766 -102q17 -42 17 -95
q0 -102 -91.5 -163.5t-257.5 -69.5l-16 95q63 10 95 25t47 42t15 73t-8 93h199z" />
    <glyph glyph-name="Lacute.c2sc" horiz-adv-x="997" 
d="M89 1074h497v-66q-28 -7 -45 -15.5t-27 -19.5t-15.5 -24.5t-9 -29t-5 -44.5t-1.5 -90v-674h153q40 0 65.5 9t47.5 34t41 70t26 109h125l-18 -333h-835v66q42 10 61 24.5t28 37t11.5 56t2.5 105.5v496q0 95 -6 131t-25 57.5t-71 34.5v66zM774 1556v-66l-347 -322l-80 66
l218 322h209z" />
    <glyph glyph-name="Lcaron.c2sc" horiz-adv-x="997" 
d="M872 1092q20 -61 20 -119q0 -51 -19 -95.5t-57.5 -90t-124.5 -120.5l-64 63q20 25 35 45.5t24 44t13.5 55t4.5 77.5q0 51 -16 140h184zM89 1074h497v-66q-28 -7 -45 -15.5t-27 -19.5t-15.5 -24.5t-9 -29t-5 -44.5t-1.5 -90v-674h153q40 0 65.5 9t47.5 34t41 70t26 109
h125l-18 -333h-835v66q42 10 61 24.5t28 37t11.5 56t2.5 105.5v496q0 95 -6 131t-25 57.5t-71 34.5v66z" />
    <glyph glyph-name="uni013B.c2sc" horiz-adv-x="997" 
d="M89 1074h497v-66q-28 -7 -45 -15.5t-27 -19.5t-15.5 -24.5t-9 -29t-5 -44.5t-1.5 -90v-674h153q40 0 65.5 9t47.5 34t41 70t26 109h125l-18 -333h-835v66q42 10 61 24.5t28 37t11.5 56t2.5 105.5v496q0 95 -6 131t-25 57.5t-71 34.5v66zM634 -102q17 -42 17 -95
q0 -102 -91.5 -163.5t-257.5 -69.5l-16 95q63 10 95 25t47 42t15 73t-8 93h199z" />
    <glyph glyph-name="Lslash.c2sc" horiz-adv-x="1004" 
d="M96 1074h497v-66q-28 -7 -45 -15.5t-27 -19.5t-15.5 -24.5t-9 -29t-5 -44.5t-1.5 -90v-95l229 154l61 -98l-290 -183v-452h153q40 0 65.5 9t47.5 34t41 70t26 109h125l-18 -333h-835v66q42 10 61 24.5t28 37t11.5 56t2.5 105.5v117l-86 -61l-60 99l146 89v252
q0 95 -6 131t-25 57.5t-71 34.5v66z" />
    <glyph glyph-name="Ldot.c2sc" horiz-adv-x="1244" 
d="M89 1074h497v-66q-28 -7 -45 -15.5t-27 -19.5t-15.5 -24.5t-9 -29t-5 -44.5t-1.5 -90v-674h153q40 0 65.5 9t47.5 34t41 70t26 109h125l-18 -333h-835v66q42 10 61 24.5t28 37t11.5 56t2.5 105.5v496q0 95 -6 131t-25 57.5t-71 34.5v66zM1219 714v-245h-249v245h249z" />
    <glyph glyph-name="Nacute.c2sc" horiz-adv-x="1243" 
d="M818 0l-384 616l-95 159h-10q7 -135 7 -302v-184q0 -95 6 -131t25 -57.5t71 -34.5v-66h-353v66q42 10 61 24.5t28 37t11.5 56t2.5 105.5v496q0 95 -6 131t-25 57.5t-71 34.5v66h383l443 -722h9q-7 132 -7 307v126q0 95 -6 131t-25 57.5t-71 34.5v66h353v-66
q-28 -7 -45 -15.5t-27 -19.5t-15.5 -24.5t-9 -29t-5 -44.5t-1.5 -90v-785h-244zM897 1556v-66l-347 -322l-80 66l218 322h209z" />
    <glyph glyph-name="Ncaron.c2sc" horiz-adv-x="1243" 
d="M818 0l-384 616l-95 159h-10q7 -135 7 -302v-184q0 -95 6 -131t25 -57.5t71 -34.5v-66h-353v66q42 10 61 24.5t28 37t11.5 56t2.5 105.5v496q0 95 -6 131t-25 57.5t-71 34.5v66h383l443 -722h9q-7 132 -7 307v126q0 95 -6 131t-25 57.5t-71 34.5v66h353v-66
q-28 -7 -45 -15.5t-27 -19.5t-15.5 -24.5t-9 -29t-5 -44.5t-1.5 -90v-785h-244zM526 1183l-206 314l77 66l217 -218h11l220 218l77 -66l-222 -314h-174z" />
    <glyph glyph-name="Ntilde.c2sc" horiz-adv-x="1243" 
d="M818 0l-384 616l-95 159h-10q7 -135 7 -302v-184q0 -95 6 -131t25 -57.5t71 -34.5v-66h-353v66q42 10 61 24.5t28 37t11.5 56t2.5 105.5v496q0 95 -6 131t-25 57.5t-71 34.5v66h383l443 -722h9q-7 132 -7 307v126q0 95 -6 131t-25 57.5t-71 34.5v66h353v-66
q-28 -7 -45 -15.5t-27 -19.5t-15.5 -24.5t-9 -29t-5 -44.5t-1.5 -90v-785h-244zM880 1483l94 -41q-57 -118 -110 -174.5t-109 -56.5q-37 0 -67.5 10.5t-87.5 49.5q-32 22 -49 31.5t-33.5 14.5t-33.5 5q-23 0 -40.5 -8.5t-38 -33t-43.5 -69.5l-93 41q47 91 78.5 136t66.5 70
t78 25q24 0 45.5 -5t41.5 -15.5t57 -35.5t54.5 -35t34 -15t38.5 -5q35 0 61.5 26.5t55.5 84.5z" />
    <glyph glyph-name="uni0145.c2sc" horiz-adv-x="1243" 
d="M818 0l-384 616l-95 159h-10q7 -135 7 -302v-184q0 -95 6 -131t25 -57.5t71 -34.5v-66h-353v66q42 10 61 24.5t28 37t11.5 56t2.5 105.5v496q0 95 -6 131t-25 57.5t-71 34.5v66h383l443 -722h9q-7 132 -7 307v126q0 95 -6 131t-25 57.5t-71 34.5v66h353v-66
q-28 -7 -45 -15.5t-27 -19.5t-15.5 -24.5t-9 -29t-5 -44.5t-1.5 -90v-785h-244zM747 -102q17 -42 17 -95q0 -102 -91.5 -163.5t-257.5 -69.5l-16 95q63 10 95 25t47 42t15 73t-8 93h199z" />
    <glyph glyph-name="Ograve.c2sc" horiz-adv-x="1245" 
d="M609 -16q-160 0 -275 56.5t-179 179.5t-64 315q0 180 63.5 304t185 187.5t286.5 63.5q185 0 303 -65t171.5 -182.5t53.5 -283.5q0 -192 -67.5 -321t-189.5 -191.5t-288 -62.5zM397 557q0 -233 56.5 -348.5t171.5 -115.5q64 0 107 35t68.5 95t36 138t10.5 166
q0 166 -28.5 267t-77.5 144t-119 43q-116 0 -170.5 -103.5t-54.5 -320.5zM556 1556l218 -322l-80 -66l-347 322v66h209z" />
    <glyph glyph-name="Oacute.c2sc" horiz-adv-x="1245" 
d="M609 -16q-160 0 -275 56.5t-179 179.5t-64 315q0 180 63.5 304t185 187.5t286.5 63.5q185 0 303 -65t171.5 -182.5t53.5 -283.5q0 -192 -67.5 -321t-189.5 -191.5t-288 -62.5zM397 557q0 -233 56.5 -348.5t171.5 -115.5q64 0 107 35t68.5 95t36 138t10.5 166
q0 166 -28.5 267t-77.5 144t-119 43q-116 0 -170.5 -103.5t-54.5 -320.5zM898 1556v-66l-347 -322l-80 66l218 322h209z" />
    <glyph glyph-name="Ocircumflex.c2sc" horiz-adv-x="1245" 
d="M609 -16q-160 0 -275 56.5t-179 179.5t-64 315q0 180 63.5 304t185 187.5t286.5 63.5q185 0 303 -65t171.5 -182.5t53.5 -283.5q0 -192 -67.5 -321t-189.5 -191.5t-288 -62.5zM397 557q0 -233 56.5 -348.5t171.5 -115.5q64 0 107 35t68.5 95t36 138t10.5 166
q0 166 -28.5 267t-77.5 144t-119 43q-116 0 -170.5 -103.5t-54.5 -320.5zM718 1549l206 -314l-77 -66l-217 218h-11l-220 -218l-77 66l222 314h174z" />
    <glyph glyph-name="Otilde.c2sc" horiz-adv-x="1245" 
d="M609 -16q-160 0 -275 56.5t-179 179.5t-64 315q0 180 63.5 304t185 187.5t286.5 63.5q185 0 303 -65t171.5 -182.5t53.5 -283.5q0 -192 -67.5 -321t-189.5 -191.5t-288 -62.5zM397 557q0 -233 56.5 -348.5t171.5 -115.5q64 0 107 35t68.5 95t36 138t10.5 166
q0 166 -28.5 267t-77.5 144t-119 43q-116 0 -170.5 -103.5t-54.5 -320.5zM881 1483l94 -41q-57 -118 -110 -174.5t-109 -56.5q-37 0 -67.5 10.5t-87.5 49.5q-32 22 -49 31.5t-33.5 14.5t-33.5 5q-23 0 -40.5 -8.5t-38 -33t-43.5 -69.5l-93 41q47 91 78.5 136t66.5 70t78 25
q24 0 45.5 -5t41.5 -15.5t57 -35.5t54.5 -35t34 -15t38.5 -5q35 0 61.5 26.5t55.5 84.5z" />
    <glyph glyph-name="Odieresis.c2sc" horiz-adv-x="1245" 
d="M609 -16q-160 0 -275 56.5t-179 179.5t-64 315q0 180 63.5 304t185 187.5t286.5 63.5q185 0 303 -65t171.5 -182.5t53.5 -283.5q0 -192 -67.5 -321t-189.5 -191.5t-288 -62.5zM397 557q0 -233 56.5 -348.5t171.5 -115.5q64 0 107 35t68.5 95t36 138t10.5 166
q0 166 -28.5 267t-77.5 144t-119 43q-116 0 -170.5 -103.5t-54.5 -320.5zM544 1460v-220h-209v220h209zM910 1460v-220h-209v220h209z" />
    <glyph glyph-name="Omacron.c2sc" horiz-adv-x="1245" 
d="M609 -16q-160 0 -275 56.5t-179 179.5t-64 315q0 180 63.5 304t185 187.5t286.5 63.5q185 0 303 -65t171.5 -182.5t53.5 -283.5q0 -192 -67.5 -321t-189.5 -191.5t-288 -62.5zM397 557q0 -233 56.5 -348.5t171.5 -115.5q64 0 107 35t68.5 95t36 138t10.5 166
q0 166 -28.5 267t-77.5 144t-119 43q-116 0 -170.5 -103.5t-54.5 -320.5zM905 1273h-564v154h564v-154z" />
    <glyph glyph-name="Obreve.c2sc" horiz-adv-x="1245" 
d="M609 -16q-160 0 -275 56.5t-179 179.5t-64 315q0 180 63.5 304t185 187.5t286.5 63.5q185 0 303 -65t171.5 -182.5t53.5 -283.5q0 -192 -67.5 -321t-189.5 -191.5t-288 -62.5zM397 557q0 -233 56.5 -348.5t171.5 -115.5q64 0 107 35t68.5 95t36 138t10.5 166
q0 166 -28.5 267t-77.5 144t-119 43q-116 0 -170.5 -103.5t-54.5 -320.5zM940 1491q-34 -139 -112.5 -210t-212.5 -71q-121 0 -200.5 72t-108.5 209l97 30q34 -78 83.5 -114.5t132.5 -36.5q90 0 142 37.5t82 113.5z" />
    <glyph glyph-name="Ohungarumlaut.c2sc" horiz-adv-x="1245" 
d="M609 -16q-160 0 -275 56.5t-179 179.5t-64 315q0 180 63.5 304t185 187.5t286.5 63.5q185 0 303 -65t171.5 -182.5t53.5 -283.5q0 -192 -67.5 -321t-189.5 -191.5t-288 -62.5zM397 557q0 -233 56.5 -348.5t171.5 -115.5q64 0 107 35t68.5 95t36 138t10.5 166
q0 166 -28.5 267t-77.5 144t-119 43q-116 0 -170.5 -103.5t-54.5 -320.5zM723 1556v-66l-319 -322l-77 66l239 322h157zM1041 1556v-66l-323 -322l-77 66l243 322h157z" />
    <glyph glyph-name="Oslash.c2sc" horiz-adv-x="1245" 
d="M265 84q-87 67 -130.5 181t-43.5 270q0 180 63.5 304t185 187.5t286.5 63.5q141 0 248 -40l100 159h143l-137 -217q87 -66 130.5 -175t43.5 -258q0 -192 -67.5 -321t-189.5 -191.5t-288 -62.5q-137 0 -240 40l-100 -159h-142zM417 318l359 577q-54 86 -154 86
q-116 0 -170.5 -103.5t-54.5 -320.5q0 -142 20 -239zM827 758l-358 -576q28 -45 66.5 -67t89.5 -22q64 0 107 35t68.5 95t36 138t10.5 166q0 127 -20 231z" />
    <glyph glyph-name="Oslashacute.c2sc" horiz-adv-x="1245" 
d="M265 84q-87 67 -130.5 181t-43.5 270q0 180 63.5 304t185 187.5t286.5 63.5q141 0 248 -40l100 159h143l-137 -217q87 -66 130.5 -175t43.5 -258q0 -192 -67.5 -321t-189.5 -191.5t-288 -62.5q-137 0 -240 40l-100 -159h-142zM417 318l359 577q-54 86 -154 86
q-116 0 -170.5 -103.5t-54.5 -320.5q0 -142 20 -239zM827 758l-358 -576q28 -45 66.5 -67t89.5 -22q64 0 107 35t68.5 95t36 138t10.5 166q0 127 -20 231zM898 1556v-66l-347 -322l-80 66l218 322h209z" />
    <glyph glyph-name="OE.c2sc" horiz-adv-x="1695" 
d="M914 0v105h-10q-68 -64 -142 -92.5t-159 -28.5q-115 0 -209.5 31t-161.5 97.5t-104 171t-37 251.5q0 178 63 302.5t181 188.5t275 64q88 0 156 -23.5t138 -79.5h10v87h685v-257h-123q-13 36 -25 62.5t-24 40.5t-26.5 24.5t-34.5 15.5t-58 5h-190v-353h97q37 0 58 9
t34 30.5t23 65.5h103v-319h-103q-10 40 -22.5 62t-32.5 32.5t-60 10.5h-97v-394h199q39 0 62.5 8t43 27t37.5 54t35 96h125l-16 -294h-690zM397 557q0 -237 53.5 -350.5t168.5 -113.5q64 0 106 35t66.5 95t34 138.5t9.5 165.5q0 229 -53.5 341.5t-165.5 112.5
q-113 0 -166 -102t-53 -322z" />
    <glyph glyph-name="Racute.c2sc" horiz-adv-x="1213" 
d="M483 446v-157q0 -57 2 -88.5t5.5 -48.5t10 -31t17 -25t29.5 -18.5t49 -11.5v-66h-508v66q42 10 61 24.5t28 37t11.5 56t2.5 105.5v496q0 95 -6 131t-25 57.5t-71 34.5v66h561q154 0 252.5 -30t146.5 -92.5t48 -167.5q0 -103 -61 -176t-189 -119v-10q46 -20 83.5 -56
t77.5 -106l69 -121q25 -45 44 -69t38.5 -38t57.5 -23v-66h-346q-51 71 -106 177l-73 140q-26 49 -43 74t-30.5 36t-28 15t-52.5 4h-55zM483 962v-411h87q62 0 105 11.5t72 37.5t43.5 64.5t14.5 98.5t-17.5 99t-47.5 62t-71 32t-89 9q-55 0 -97 -3zM883 1556v-66l-347 -322
l-80 66l218 322h209z" />
    <glyph glyph-name="Rcaron.c2sc" horiz-adv-x="1213" 
d="M483 446v-157q0 -57 2 -88.5t5.5 -48.5t10 -31t17 -25t29.5 -18.5t49 -11.5v-66h-508v66q42 10 61 24.5t28 37t11.5 56t2.5 105.5v496q0 95 -6 131t-25 57.5t-71 34.5v66h561q154 0 252.5 -30t146.5 -92.5t48 -167.5q0 -103 -61 -176t-189 -119v-10q46 -20 83.5 -56
t77.5 -106l69 -121q25 -45 44 -69t38.5 -38t57.5 -23v-66h-346q-51 71 -106 177l-73 140q-26 49 -43 74t-30.5 36t-28 15t-52.5 4h-55zM483 962v-411h87q62 0 105 11.5t72 37.5t43.5 64.5t14.5 98.5t-17.5 99t-47.5 62t-71 32t-89 9q-55 0 -97 -3zM512 1183l-206 314l77 66
l217 -218h11l220 218l77 -66l-222 -314h-174z" />
    <glyph glyph-name="uni0156.c2sc" horiz-adv-x="1213" 
d="M483 446v-157q0 -57 2 -88.5t5.5 -48.5t10 -31t17 -25t29.5 -18.5t49 -11.5v-66h-508v66q42 10 61 24.5t28 37t11.5 56t2.5 105.5v496q0 95 -6 131t-25 57.5t-71 34.5v66h561q154 0 252.5 -30t146.5 -92.5t48 -167.5q0 -103 -61 -176t-189 -119v-10q46 -20 83.5 -56
t77.5 -106l69 -121q25 -45 44 -69t38.5 -38t57.5 -23v-66h-346q-51 71 -106 177l-73 140q-26 49 -43 74t-30.5 36t-28 15t-52.5 4h-55zM483 962v-411h87q62 0 105 11.5t72 37.5t43.5 64.5t14.5 98.5t-17.5 99t-47.5 62t-71 32t-89 9q-55 0 -97 -3zM743 -102q17 -42 17 -95
q0 -102 -91.5 -163.5t-257.5 -69.5l-16 95q63 10 95 25t47 42t15 73t-8 93h199z" />
    <glyph glyph-name="Sacute.c2sc" horiz-adv-x="982" 
d="M226 293q24 -99 77.5 -149.5t148.5 -50.5q44 0 81 14.5t60 48t23 85.5q0 46 -19.5 78t-65 62t-149.5 75q-92 39 -152 82t-93 101t-33 135q0 100 54.5 171.5t153.5 108t226 36.5q99 0 184 -9t166 -24v-253h-136q-32 91 -78.5 134t-127.5 43q-70 0 -112.5 -34t-42.5 -93
q0 -48 22 -81t69.5 -62.5t143.5 -70.5q93 -40 152 -84.5t90.5 -102.5t31.5 -133q0 -92 -32 -156t-89 -104t-135.5 -58t-172.5 -18q-177 0 -382 47v262h137zM766 1556v-66l-347 -322l-80 66l218 322h209z" />
    <glyph glyph-name="Scircumflex.c2sc" horiz-adv-x="982" 
d="M226 293q24 -99 77.5 -149.5t148.5 -50.5q44 0 81 14.5t60 48t23 85.5q0 46 -19.5 78t-65 62t-149.5 75q-92 39 -152 82t-93 101t-33 135q0 100 54.5 171.5t153.5 108t226 36.5q99 0 184 -9t166 -24v-253h-136q-32 91 -78.5 134t-127.5 43q-70 0 -112.5 -34t-42.5 -93
q0 -48 22 -81t69.5 -62.5t143.5 -70.5q93 -40 152 -84.5t90.5 -102.5t31.5 -133q0 -92 -32 -156t-89 -104t-135.5 -58t-172.5 -18q-177 0 -382 47v262h137zM586 1549l206 -314l-77 -66l-217 218h-11l-220 -218l-77 66l222 314h174z" />
    <glyph glyph-name="Scaron.c2sc" horiz-adv-x="982" 
d="M226 293q24 -99 77.5 -149.5t148.5 -50.5q44 0 81 14.5t60 48t23 85.5q0 46 -19.5 78t-65 62t-149.5 75q-92 39 -152 82t-93 101t-33 135q0 100 54.5 171.5t153.5 108t226 36.5q99 0 184 -9t166 -24v-253h-136q-32 91 -78.5 134t-127.5 43q-70 0 -112.5 -34t-42.5 -93
q0 -48 22 -81t69.5 -62.5t143.5 -70.5q93 -40 152 -84.5t90.5 -102.5t31.5 -133q0 -92 -32 -156t-89 -104t-135.5 -58t-172.5 -18q-177 0 -382 47v262h137zM396 1183l-206 314l77 66l217 -218h11l220 218l77 -66l-222 -314h-174z" />
    <glyph glyph-name="Scedilla.c2sc" horiz-adv-x="982" 
d="M226 293q24 -99 77.5 -149.5t148.5 -50.5q44 0 81 14.5t60 48t23 85.5q0 46 -19.5 78t-65 62t-149.5 75q-92 39 -152 82t-93 101t-33 135q0 100 54.5 171.5t153.5 108t226 36.5q99 0 184 -9t166 -24v-253h-136q-32 91 -78.5 134t-127.5 43q-70 0 -112.5 -34t-42.5 -93
q0 -48 22 -81t69.5 -62.5t143.5 -70.5q93 -40 152 -84.5t90.5 -102.5t31.5 -133q0 -120 -57 -198.5t-174 -112.5l-111 -77q17 -23 25.5 -56.5t8.5 -72.5q0 -102 -91.5 -163.5t-257.5 -69.5l-16 95q82 12 119.5 40t37.5 87q0 37 -5 63v43l129 87q-9 -1 -18 -1h-19
q-177 0 -382 47v262h137z" />
    <glyph glyph-name="uni0218.c2sc" horiz-adv-x="982" 
d="M226 293q24 -99 77.5 -149.5t148.5 -50.5q44 0 81 14.5t60 48t23 85.5q0 46 -19.5 78t-65 62t-149.5 75q-92 39 -152 82t-93 101t-33 135q0 100 54.5 171.5t153.5 108t226 36.5q99 0 184 -9t166 -24v-253h-136q-32 91 -78.5 134t-127.5 43q-70 0 -112.5 -34t-42.5 -93
q0 -48 22 -81t69.5 -62.5t143.5 -70.5q93 -40 152 -84.5t90.5 -102.5t31.5 -133q0 -92 -32 -156t-89 -104t-135.5 -58t-172.5 -18q-177 0 -382 47v262h137zM606 -102q17 -42 17 -95q0 -102 -91.5 -163.5t-257.5 -69.5l-16 95q63 10 95 25t47 42t15 73t-8 93h199z" />
    <glyph glyph-name="Tcaron.c2sc" horiz-adv-x="1162" 
d="M57 1074h1048v-290h-123q-7 47 -24 86t-36 58.5t-42 28t-69 8.5h-84v-676q0 -57 2 -88.5t5.5 -48.5t10 -31t17 -25t29.5 -18.5t49 -11.5v-66h-518v66q30 5 49 13t30 18.5t17 24.5t9.5 30t5.5 45.5t2 91.5v676h-84q-47 0 -70 -8.5t-42.5 -29t-36 -60.5t-22.5 -83h-123v290
zM486 1183l-206 314l77 66l217 -218h11l220 218l77 -66l-222 -314h-174z" />
    <glyph glyph-name="uni0162.c2sc" horiz-adv-x="1162" 
d="M57 1074h1048v-290h-123q-7 47 -24 86t-36 58.5t-42 28t-69 8.5h-84v-676q0 -57 2 -88.5t5.5 -48.5t10 -31t17 -25t29.5 -18.5t49 -11.5v-66h-518v66q30 5 49 13t30 18.5t17 24.5t9.5 30t5.5 45.5t2 91.5v676h-84q-47 0 -70 -8.5t-42.5 -29t-36 -60.5t-22.5 -83h-123v290
zM690 -102q17 -42 17 -95q0 -102 -91.5 -163.5t-257.5 -69.5l-16 95q63 10 95 25t47 42t15 73t-8 93h199z" />
    <glyph glyph-name="Tbar.c2sc" horiz-adv-x="1162" 
d="M936 578v-112h-209v-177q0 -57 2 -88.5t5.5 -48.5t10 -31t17 -25t29.5 -18.5t49 -11.5v-66h-518v66q30 5 49 13t30 18.5t17 24.5t9.5 30t5.5 45.5t2 91.5v177h-209v112h209v387h-84q-47 0 -70 -8.5t-42.5 -29t-36 -60.5t-22.5 -83h-123v290h1048v-290h-123q-7 47 -24 86
t-36 58.5t-42 28t-69 8.5h-84v-387h209z" />
    <glyph glyph-name="Ugrave.c2sc" horiz-adv-x="1211" 
d="M838 785q0 95 -6 131t-25 57.5t-71 34.5v66h418v-66q-28 -7 -45 -15.5t-27 -19.5t-15.5 -24.5t-9 -29t-5 -44.5t-1.5 -90v-382q0 -129 -27 -204t-80 -123t-134 -70t-195 -22q-123 0 -209 24t-139 72.5t-78.5 120t-25.5 186.5v398q0 95 -6 131t-25 57.5t-71 34.5v66h497
v-66q-28 -7 -45 -15.5t-27 -19.5t-15.5 -24.5t-9 -29t-5 -44.5t-1.5 -90v-444q0 -83 16 -135.5t58 -82.5t117 -30q77 0 116.5 27.5t57.5 79t18 159.5v426zM536 1556l218 -322l-80 -66l-347 322v66h209z" />
    <glyph glyph-name="Uacute.c2sc" horiz-adv-x="1211" 
d="M838 785q0 95 -6 131t-25 57.5t-71 34.5v66h418v-66q-28 -7 -45 -15.5t-27 -19.5t-15.5 -24.5t-9 -29t-5 -44.5t-1.5 -90v-382q0 -129 -27 -204t-80 -123t-134 -70t-195 -22q-123 0 -209 24t-139 72.5t-78.5 120t-25.5 186.5v398q0 95 -6 131t-25 57.5t-71 34.5v66h497
v-66q-28 -7 -45 -15.5t-27 -19.5t-15.5 -24.5t-9 -29t-5 -44.5t-1.5 -90v-444q0 -83 16 -135.5t58 -82.5t117 -30q77 0 116.5 27.5t57.5 79t18 159.5v426zM924 1556v-66l-347 -322l-80 66l218 322h209z" />
    <glyph glyph-name="Ucircumflex.c2sc" horiz-adv-x="1211" 
d="M838 785q0 95 -6 131t-25 57.5t-71 34.5v66h418v-66q-28 -7 -45 -15.5t-27 -19.5t-15.5 -24.5t-9 -29t-5 -44.5t-1.5 -90v-382q0 -129 -27 -204t-80 -123t-134 -70t-195 -22q-123 0 -209 24t-139 72.5t-78.5 120t-25.5 186.5v398q0 95 -6 131t-25 57.5t-71 34.5v66h497
v-66q-28 -7 -45 -15.5t-27 -19.5t-15.5 -24.5t-9 -29t-5 -44.5t-1.5 -90v-444q0 -83 16 -135.5t58 -82.5t117 -30q77 0 116.5 27.5t57.5 79t18 159.5v426zM720 1549l206 -314l-77 -66l-217 218h-11l-220 -218l-77 66l222 314h174z" />
    <glyph glyph-name="Utilde.c2sc" horiz-adv-x="1211" 
d="M838 785q0 95 -6 131t-25 57.5t-71 34.5v66h418v-66q-28 -7 -45 -15.5t-27 -19.5t-15.5 -24.5t-9 -29t-5 -44.5t-1.5 -90v-382q0 -129 -27 -204t-80 -123t-134 -70t-195 -22q-123 0 -209 24t-139 72.5t-78.5 120t-25.5 186.5v398q0 95 -6 131t-25 57.5t-71 34.5v66h497
v-66q-28 -7 -45 -15.5t-27 -19.5t-15.5 -24.5t-9 -29t-5 -44.5t-1.5 -90v-444q0 -83 16 -135.5t58 -82.5t117 -30q77 0 116.5 27.5t57.5 79t18 159.5v426zM884 1483l94 -41q-57 -118 -110 -174.5t-109 -56.5q-37 0 -67.5 10.5t-87.5 49.5q-32 22 -49 31.5t-33.5 14.5
t-33.5 5q-23 0 -40.5 -8.5t-38 -33t-43.5 -69.5l-93 41q47 91 78.5 136t66.5 70t78 25q24 0 45.5 -5t41.5 -15.5t57 -35.5t54.5 -35t34 -15t38.5 -5q35 0 61.5 26.5t55.5 84.5z" />
    <glyph glyph-name="Udieresis.c2sc" horiz-adv-x="1211" 
d="M838 785q0 95 -6 131t-25 57.5t-71 34.5v66h418v-66q-28 -7 -45 -15.5t-27 -19.5t-15.5 -24.5t-9 -29t-5 -44.5t-1.5 -90v-382q0 -129 -27 -204t-80 -123t-134 -70t-195 -22q-123 0 -209 24t-139 72.5t-78.5 120t-25.5 186.5v398q0 95 -6 131t-25 57.5t-71 34.5v66h497
v-66q-28 -7 -45 -15.5t-27 -19.5t-15.5 -24.5t-9 -29t-5 -44.5t-1.5 -90v-444q0 -83 16 -135.5t58 -82.5t117 -30q77 0 116.5 27.5t57.5 79t18 159.5v426zM547 1460v-220h-209v220h209zM913 1460v-220h-209v220h209z" />
    <glyph glyph-name="Umacron.c2sc" horiz-adv-x="1211" 
d="M838 785q0 95 -6 131t-25 57.5t-71 34.5v66h418v-66q-28 -7 -45 -15.5t-27 -19.5t-15.5 -24.5t-9 -29t-5 -44.5t-1.5 -90v-382q0 -129 -27 -204t-80 -123t-134 -70t-195 -22q-123 0 -209 24t-139 72.5t-78.5 120t-25.5 186.5v398q0 95 -6 131t-25 57.5t-71 34.5v66h497
v-66q-28 -7 -45 -15.5t-27 -19.5t-15.5 -24.5t-9 -29t-5 -44.5t-1.5 -90v-444q0 -83 16 -135.5t58 -82.5t117 -30q77 0 116.5 27.5t57.5 79t18 159.5v426zM907 1273h-564v154h564v-154z" />
    <glyph glyph-name="Ubreve.c2sc" horiz-adv-x="1211" 
d="M838 785q0 95 -6 131t-25 57.5t-71 34.5v66h418v-66q-28 -7 -45 -15.5t-27 -19.5t-15.5 -24.5t-9 -29t-5 -44.5t-1.5 -90v-382q0 -129 -27 -204t-80 -123t-134 -70t-195 -22q-123 0 -209 24t-139 72.5t-78.5 120t-25.5 186.5v398q0 95 -6 131t-25 57.5t-71 34.5v66h497
v-66q-28 -7 -45 -15.5t-27 -19.5t-15.5 -24.5t-9 -29t-5 -44.5t-1.5 -90v-444q0 -83 16 -135.5t58 -82.5t117 -30q77 0 116.5 27.5t57.5 79t18 159.5v426zM942 1491q-34 -139 -112.5 -210t-212.5 -71q-121 0 -200.5 72t-108.5 209l97 30q34 -78 83.5 -114.5t132.5 -36.5
q90 0 142 37.5t82 113.5z" />
    <glyph glyph-name="Uring.c2sc" horiz-adv-x="1211" 
d="M838 785q0 95 -6 131t-25 57.5t-71 34.5v66h418v-66q-28 -7 -45 -15.5t-27 -19.5t-15.5 -24.5t-9 -29t-5 -44.5t-1.5 -90v-382q0 -129 -27 -204t-80 -123t-134 -70t-195 -22q-123 0 -209 24t-139 72.5t-78.5 120t-25.5 186.5v398q0 95 -6 131t-25 57.5t-71 34.5v66h497
v-66q-28 -7 -45 -15.5t-27 -19.5t-15.5 -24.5t-9 -29t-5 -44.5t-1.5 -90v-444q0 -83 16 -135.5t58 -82.5t117 -30q77 0 116.5 27.5t57.5 79t18 159.5v426zM620 1165q-113 0 -172 53t-59 154q0 70 31.5 118.5t87 72t125.5 23.5q113 0 171 -52.5t58 -152.5
q0 -105 -63.5 -160.5t-178.5 -55.5zM509 1379q0 -65 30 -101t89 -36q55 0 84.5 33.5t29.5 94.5q0 67 -31 103t-85 36q-58 0 -87.5 -34t-29.5 -96z" />
    <glyph glyph-name="Uhungarumlaut.c2sc" horiz-adv-x="1211" 
d="M838 785q0 95 -6 131t-25 57.5t-71 34.5v66h418v-66q-28 -7 -45 -15.5t-27 -19.5t-15.5 -24.5t-9 -29t-5 -44.5t-1.5 -90v-382q0 -129 -27 -204t-80 -123t-134 -70t-195 -22q-123 0 -209 24t-139 72.5t-78.5 120t-25.5 186.5v398q0 95 -6 131t-25 57.5t-71 34.5v66h497
v-66q-28 -7 -45 -15.5t-27 -19.5t-15.5 -24.5t-9 -29t-5 -44.5t-1.5 -90v-444q0 -83 16 -135.5t58 -82.5t117 -30q77 0 116.5 27.5t57.5 79t18 159.5v426zM726 1556v-66l-319 -322l-77 66l239 322h157zM1044 1556v-66l-323 -322l-77 66l243 322h157z" />
    <glyph glyph-name="Uogonek.c2sc" horiz-adv-x="1211" 
d="M838 785q0 95 -6 131t-25 57.5t-71 34.5v66h418v-66q-28 -7 -45 -15.5t-27 -19.5t-15.5 -24.5t-9 -29t-5 -44.5t-1.5 -90v-382q0 -123 -24.5 -197.5t-78.5 -126.5q-71 -68 -104.5 -106.5t-52.5 -72.5t-27 -62.5t-8 -57.5q0 -50 23 -76t65 -26q30 0 52.5 10t40.5 22
l38 -86q-36 -25 -82 -42.5t-98 -17.5q-40 0 -77.5 9.5t-66.5 30t-46.5 55.5t-17.5 85q0 69 43 133.5t123 118.5q-52 -12 -138 -12q-123 0 -209 24t-139 72.5t-78.5 120t-25.5 186.5v398q0 95 -6 131t-25 57.5t-71 34.5v66h497v-66q-28 -7 -45 -15.5t-27 -19.5t-15.5 -24.5
t-9 -29t-5 -44.5t-1.5 -90v-444q0 -83 16 -135.5t58 -82.5t117 -30q77 0 116.5 27.5t57.5 79t18 159.5v426z" />
    <glyph glyph-name="Wgrave.c2sc" horiz-adv-x="1731" 
d="M1063 -11l-202 728l-236 -728h-217l-259 844q-23 76 -39.5 107.5t-34.5 46t-48 21.5v66h500v-66q-47 -8 -70.5 -28.5t-23.5 -57.5q0 -18 5 -42t21 -78l141 -498l247 770h195l208 -770l152 443q19 56 27 92t8 64q0 42 -23.5 70t-68.5 35v66h385v-67q-23 -7 -37.5 -15
t-26 -20.5t-26 -37t-31.5 -64.5t-43 -108l-290 -773h-213zM869 1556l218 -322l-80 -66l-347 322v66h209z" />
    <glyph glyph-name="Wacute.c2sc" horiz-adv-x="1731" 
d="M1063 -11l-202 728l-236 -728h-217l-259 844q-23 76 -39.5 107.5t-34.5 46t-48 21.5v66h500v-66q-47 -8 -70.5 -28.5t-23.5 -57.5q0 -18 5 -42t21 -78l141 -498l247 770h195l208 -770l152 443q19 56 27 92t8 64q0 42 -23.5 70t-68.5 35v66h385v-67q-23 -7 -37.5 -15
t-26 -20.5t-26 -37t-31.5 -64.5t-43 -108l-290 -773h-213zM1211 1556v-66l-347 -322l-80 66l218 322h209z" />
    <glyph glyph-name="Wcircumflex.c2sc" horiz-adv-x="1731" 
d="M1063 -11l-202 728l-236 -728h-217l-259 844q-23 76 -39.5 107.5t-34.5 46t-48 21.5v66h500v-66q-47 -8 -70.5 -28.5t-23.5 -57.5q0 -18 5 -42t21 -78l141 -498l247 770h195l208 -770l152 443q19 56 27 92t8 64q0 42 -23.5 70t-68.5 35v66h385v-67q-23 -7 -37.5 -15
t-26 -20.5t-26 -37t-31.5 -64.5t-43 -108l-290 -773h-213zM1030 1549l206 -314l-77 -66l-217 218h-11l-220 -218l-77 66l222 314h174z" />
    <glyph glyph-name="Wdieresis.c2sc" horiz-adv-x="1731" 
d="M1063 -11l-202 728l-236 -728h-217l-259 844q-23 76 -39.5 107.5t-34.5 46t-48 21.5v66h500v-66q-47 -8 -70.5 -28.5t-23.5 -57.5q0 -18 5 -42t21 -78l141 -498l247 770h195l208 -770l152 443q19 56 27 92t8 64q0 42 -23.5 70t-68.5 35v66h385v-67q-23 -7 -37.5 -15
t-26 -20.5t-26 -37t-31.5 -64.5t-43 -108l-290 -773h-213zM857 1460v-220h-209v220h209zM1223 1460v-220h-209v220h209z" />
    <glyph glyph-name="Ygrave.c2sc" horiz-adv-x="1113" 
d="M396 403l-218 413q-62 117 -92.5 151.5t-66.5 40.5v66h507v-66q-35 -3 -54.5 -20t-19.5 -44q0 -23 9 -50.5t29 -64.5l143 -279l150 266q24 42 32.5 70.5t8.5 58.5q0 26 -15 42.5t-51 20.5v66h361v-66q-44 -12 -86 -57t-94 -132l-251 -414v-116q0 -57 2 -88.5t5.5 -48.5
t10 -31t17 -25t29.5 -18.5t49 -11.5v-66h-518v66q30 5 49 13t30 18.5t17 24.5t9.5 30t5.5 45.5t2 91.5v114zM493 1556l218 -322l-80 -66l-347 322v66h209z" />
    <glyph glyph-name="Yacute.c2sc" horiz-adv-x="1113" 
d="M396 403l-218 413q-62 117 -92.5 151.5t-66.5 40.5v66h507v-66q-35 -3 -54.5 -20t-19.5 -44q0 -23 9 -50.5t29 -64.5l143 -279l150 266q24 42 32.5 70.5t8.5 58.5q0 26 -15 42.5t-51 20.5v66h361v-66q-44 -12 -86 -57t-94 -132l-251 -414v-116q0 -57 2 -88.5t5.5 -48.5
t10 -31t17 -25t29.5 -18.5t49 -11.5v-66h-518v66q30 5 49 13t30 18.5t17 24.5t9.5 30t5.5 45.5t2 91.5v114zM888 1556v-66l-347 -322l-80 66l218 322h209z" />
    <glyph glyph-name="Ycircumflex.c2sc" horiz-adv-x="1113" 
d="M396 403l-218 413q-62 117 -92.5 151.5t-66.5 40.5v66h507v-66q-35 -3 -54.5 -20t-19.5 -44q0 -23 9 -50.5t29 -64.5l143 -279l150 266q24 42 32.5 70.5t8.5 58.5q0 26 -15 42.5t-51 20.5v66h361v-66q-44 -12 -86 -57t-94 -132l-251 -414v-116q0 -57 2 -88.5t5.5 -48.5
t10 -31t17 -25t29.5 -18.5t49 -11.5v-66h-518v66q30 5 49 13t30 18.5t17 24.5t9.5 30t5.5 45.5t2 91.5v114zM687 1549l206 -314l-77 -66l-217 218h-11l-220 -218l-77 66l222 314h174z" />
    <glyph glyph-name="Ydieresis.c2sc" horiz-adv-x="1113" 
d="M396 403l-218 413q-62 117 -92.5 151.5t-66.5 40.5v66h507v-66q-35 -3 -54.5 -20t-19.5 -44q0 -23 9 -50.5t29 -64.5l143 -279l150 266q24 42 32.5 70.5t8.5 58.5q0 26 -15 42.5t-51 20.5v66h361v-66q-44 -12 -86 -57t-94 -132l-251 -414v-116q0 -57 2 -88.5t5.5 -48.5
t10 -31t17 -25t29.5 -18.5t49 -11.5v-66h-518v66q30 5 49 13t30 18.5t17 24.5t9.5 30t5.5 45.5t2 91.5v114zM514 1460v-220h-209v220h209zM880 1460v-220h-209v220h209z" />
    <glyph glyph-name="Zacute.c2sc" horiz-adv-x="1024" 
d="M410 111h246q45 0 76.5 19t57 66t46.5 131h123v-327h-893v66l548 897h-234q-48 0 -77 -16.5t-52 -54.5t-55 -128h-123v310h885v-66zM787 1556v-66l-347 -322l-80 66l218 322h209z" />
    <glyph glyph-name="Zcaron.c2sc" horiz-adv-x="1024" 
d="M410 111h246q45 0 76.5 19t57 66t46.5 131h123v-327h-893v66l548 897h-234q-48 0 -77 -16.5t-52 -54.5t-55 -128h-123v310h885v-66zM417 1183l-206 314l77 66l217 -218h11l220 218l77 -66l-222 -314h-174z" />
    <glyph glyph-name="Zdotaccent.c2sc" horiz-adv-x="1024" 
d="M410 111h246q45 0 76.5 19t57 66t46.5 131h123v-327h-893v66l548 897h-234q-48 0 -77 -16.5t-52 -54.5t-55 -128h-123v310h885v-66zM649 1472v-245h-274v245h274z" />
    <glyph glyph-name="Eng.c2sc" horiz-adv-x="1243" 
d="M1062 110q0 -111 -13.5 -183t-47 -129.5t-87 -88t-123.5 -30.5q-82 0 -163 20v192h98q9 -39 28 -57t57 -18q42 0 68 39t30 124l1 21h-92l-479 775h-10q7 -135 7 -302v-184q0 -95 6 -131t25 -57.5t71 -34.5v-66h-353v66q42 10 61 24.5t28 37t11.5 56t2.5 105.5v496
q0 95 -6 131t-25 57.5t-71 34.5v66h383l443 -722h9q-7 132 -7 307v126q0 95 -6 131t-25 57.5t-71 34.5v66h353v-66q-28 -7 -45 -15.5t-27 -19.5t-15.5 -24.5t-9 -29t-5 -44.5t-1.5 -90v-675z" />
    <glyph glyph-name="Eth.c2sc" horiz-adv-x="1294" 
d="M565 1074q156 0 255.5 -21.5t170.5 -64t118 -102.5t72.5 -142.5t25.5 -191.5q0 -150 -51 -263q-49 -107 -143 -176q-90 -66 -218 -92q-102 -21 -254 -21h-444v66q42 10 61 24.5t28 37t11.5 56t2.5 105.5v217h-146v112h146v167q0 95 -6 131t-25 57.5t-71 34.5v66h467z
M723 506h-231v-394q33 -3 67 -3q172 0 258 107t86 323q0 140 -42 235.5t-119 143t-180 47.5q-47 0 -70 -2v-345h230z" />
    <glyph glyph-name="Thorn.c2sc" horiz-adv-x="1171" 
d="M585 0h-497v66q42 10 61 24.5t28 37t11.5 56t2.5 105.5v496q0 95 -6 131t-25 57.5t-71 34.5v66h497v-66q-59 -14 -79.5 -42.5t-21.5 -90.5h165q156 0 254 -30.5t145.5 -93.5t47.5 -168q0 -78 -28.5 -141.5t-89.5 -113.5t-145 -69.5t-192 -19.5q-97 0 -159 3q0 -65 8 -97
t28.5 -50t65.5 -29v-66zM483 763v-416h87q100 0 146.5 26.5t67.5 71t21 117.5q0 60 -17.5 99.5t-47.5 62.5t-71 32.5t-89 9.5q-55 0 -97 -3z" />
    <glyph glyph-name="a.ordn" horiz-adv-x="818" 
d="M497 909l-7 2q-59 -48 -113.5 -70t-114.5 -22q-62 0 -107.5 21t-69 58t-23.5 84q0 96 102 150t305 68v43q0 70 -24.5 106t-78.5 36t-81.5 -31t-38.5 -87h-148v122q86 37 177 59t166 22q90 0 142.5 -22.5t76 -68.5t23.5 -122v-243q0 -61 5.5 -79.5t18 -27.5t52.5 -17v-61
h-269zM470 1122q-103 -3 -151.5 -32.5t-48.5 -88.5q0 -36 23 -55t62 -19q29 0 55.5 13t43 35t16.5 47v100z" />
    <glyph glyph-name="b.ordn" horiz-adv-x="898" 
d="M131 1508q0 65 -3.5 89t-16 37t-59.5 21v62l201 9h92v-339l6 -3q102 86 206 86q121 0 187.5 -83.5t66.5 -239.5q0 -90 -26 -153t-71 -102.5t-105 -57.5t-129 -18q-62 0 -111.5 12.5t-91.5 28.5l-51 -41l-95 13v679zM345 1040q0 -71 28.5 -105t87.5 -34q62 0 94 56t32 162
q0 121 -29 177.5t-91 56.5q-25 0 -52.5 -10.5t-48.5 -34t-21 -55.5v-213z" />
    <glyph glyph-name="c.ordn" horiz-adv-x="723" 
d="M624 1005l61 -72q-71 -62 -139 -89.5t-145 -27.5q-105 0 -176.5 42t-106 114t-34.5 167q0 106 48.5 181.5t130.5 112.5t183 37q48 0 110 -8t111 -23v-162h-148q-9 57 -30 82.5t-58 25.5q-62 0 -92.5 -59.5t-30.5 -175.5q0 -63 12 -104.5t32 -67t47 -35.5t58 -10
q83 0 167 72z" />
    <glyph glyph-name="d.ordn" horiz-adv-x="907" 
d="M767 1016q0 -57 4 -76t18 -31t55 -19v-61l-196 -8h-91l10 89l-9 1q-58 -49 -112 -72t-102 -23q-124 0 -190.5 83.5t-66.5 240.5q0 89 27.5 152t74.5 102.5t109 57.5t131 18q39 0 68.5 -5t55.5 -12v54q0 73 -5.5 97t-19 34.5t-54.5 16.5v62l200 9h93v-710zM553 1252
q0 65 -28 99t-82 34q-64 0 -98 -55.5t-34 -162.5q0 -119 28.5 -176.5t90.5 -57.5q28 0 56.5 12t47.5 35.5t19 55.5v216z" />
    <glyph glyph-name="e.ordn" horiz-adv-x="812" 
d="M725 942q-77 -71 -146.5 -98.5t-161.5 -27.5q-110 0 -185 40t-111.5 113t-36.5 171q0 97 42.5 172t122 116.5t182.5 41.5q151 0 230 -83.5t82 -255.5h-443q0 -103 42.5 -150.5t131.5 -47.5q55 0 98.5 18.5t89.5 60.5zM524 1218q-2 84 -26.5 125.5t-78.5 41.5
q-50 0 -80 -44t-35 -123h220z" />
    <glyph glyph-name="f.ordn" horiz-adv-x="519" 
d="M79 890q34 9 47 19.5t18 28t5 53.5v369h-86v63q37 4 52 10.5t24 20t12 41.5q13 116 93.5 177.5t233.5 61.5q61 0 117 -12v-142h-105q-9 33 -23 49t-37 16q-35 0 -51 -31t-16 -113v-44h135v-97h-135v-369q0 -42 5.5 -58t20.5 -26t50 -17v-61h-360v61z" />
    <glyph glyph-name="g.ordn" horiz-adv-x="796" 
d="M768 1355l-113 10l-2 -7q16 -17 27 -45.5t11 -63.5q0 -107 -77 -163t-220 -56q-40 0 -67.5 2.5t-53.5 9.5q-16 -12 -25.5 -24t-9.5 -26q0 -27 23 -39t66 -12h197q232 0 232 -171q0 -66 -43 -113.5t-124 -73t-190 -25.5q-78 0 -143.5 6.5t-112.5 23.5t-72.5 46.5
t-25.5 75.5q0 36 20 64t62 53q-22 19 -33 43.5t-11 56.5q0 45 26.5 80t71.5 67q-47 28 -72 73t-25 100q0 57 23.5 98.5t65 69.5t98.5 41t123 13q24 0 44.5 -2t72.5 -10h257v-102zM290 1254q0 -72 24.5 -107t78.5 -35q48 0 73.5 33t25.5 98q0 71 -25.5 107.5t-74.5 36.5
q-52 0 -77 -33t-25 -100zM260 790q-45 -30 -45 -72q0 -40 44.5 -57t136.5 -17q89 0 133.5 22.5t44.5 62.5q0 32 -26.5 45.5t-77.5 13.5h-125q-47 0 -85 2zM419 829z" />
    <glyph glyph-name="h.ordn" horiz-adv-x="906" 
d="M360 1384q58 47 106.5 66.5t99.5 19.5q60 0 98.5 -15.5t62.5 -43t34.5 -68.5t10.5 -97v-232q0 -53 4 -72.5t18 -31.5t49 -20v-61h-351v61q31 6 44 18t17.5 32t4.5 73v173q0 60 -4.5 90.5t-14.5 46t-25 23t-43 7.5q-25 0 -52 -12t-46 -34.5t-19 -48.5v-244q0 -53 4.5 -73
t17 -32t47.5 -19v-61h-354v61q35 7 48.5 19t18 32t4.5 73v482q0 62 -2 87.5t-9 38t-19.5 19.5t-48.5 14v62l199 9h94v-337z" />
    <glyph glyph-name="i.ordn" horiz-adv-x="502" 
d="M357 1718v-170h-203v170h203zM79 890q34 7 47.5 19t18 31.5t4.5 72.5v289q0 32 -5.5 49.5t-19.5 27t-53 16.5v62l198 8h94v-451q0 -51 2.5 -67.5t10 -27.5t21 -17.5t36.5 -11.5v-61h-354v61z" />
    <glyph glyph-name="j.ordn" horiz-adv-x="485" 
d="M348 1718v-170h-203v170h203zM354 888q0 -77 -16 -127.5t-50.5 -88.5t-96 -67t-131.5 -46l-35 92q51 18 74 35.5t32 41.5t9 64v510q0 32 -5.5 49.5t-19.5 27t-53 16.5v62l198 8h94v-577zM229 829z" />
    <glyph glyph-name="k.ordn" horiz-adv-x="892" 
d="M354 1210h7q26 0 42 4.5t32.5 15.5t43.5 31.5t43 38t21.5 30t5.5 27.5q0 32 -60 39v61h361v-61q-23 -3 -45 -12.5t-47 -27t-76 -57.5l-99 -79l167 -226q24 -33 43 -54t39 -32.5t50 -17.5v-61h-261l-188 267q-14 20 -29.5 27t-33.5 7h-16v-116q0 -53 4.5 -73t17 -32
t47.5 -19v-61h-354v61q35 7 48.5 19t18 32t4.5 73v482q0 62 -2 87.5t-9 38t-19.5 19.5t-48.5 14v62l199 9h94v-516z" />
    <glyph glyph-name="l.ordn" horiz-adv-x="493" 
d="M354 1014q0 -53 4.5 -73t17 -32t47.5 -19v-61h-354v61q35 7 48.5 19t18 32t4.5 73v482q0 62 -2 87.5t-9 38t-19.5 19.5t-48.5 14v62l199 9h94v-712z" />
    <glyph glyph-name="m.ordn" horiz-adv-x="1326" 
d="M759 1365q68 58 119 81.5t110 23.5q102 0 153 -52t51 -172v-232q0 -53 4 -72.5t18 -31.5t49 -20v-61h-348v61q31 6 42.5 18t16 32t4.5 73v173q0 80 -8 110.5t-26.5 43.5t-50.5 13q-24 0 -50.5 -12.5t-45.5 -35.5t-19 -49v-242q0 -54 3.5 -73t17 -31t49.5 -20v-61h-348v61
q31 6 42.5 18t16 32t4.5 73v173q0 80 -8 110.5t-26.5 43.5t-50.5 13q-24 0 -51 -12.5t-45.5 -34.5t-18.5 -48v-244q0 -53 4 -73.5t16.5 -32.5t43.5 -18v-61h-347v61q33 7 46.5 19t18 31.5t4.5 72.5v257q0 57 -4 76t-17.5 30.5t-56.5 18.5v62l198 8h92l-12 -89h10
q62 52 112.5 73t101.5 21q73 0 117.5 -26t68.5 -79z" />
    <glyph glyph-name="uni207F" unicode="&#x207f;" horiz-adv-x="916" 
d="M269 1465h92l-12 -89h10q46 38 76.5 55t65.5 28t74 11q60 0 98.5 -15.5t62.5 -43t34.5 -68.5t10.5 -97v-232q0 -53 4 -72.5t18 -31.5t49 -20v-61h-351v61q31 6 44 18t17.5 32t4.5 73v173q0 60 -4.5 90.5t-14.5 46t-25 23t-43 7.5q-25 0 -52 -12t-46 -34.5t-19 -48.5v-244
q0 -53 4 -73.5t17 -32.5t46 -18v-61h-350v61q33 7 46.5 19t18 31.5t4.5 72.5v257q0 57 -4 76t-17.5 30.5t-56.5 18.5v62z" />
    <glyph glyph-name="o.ordn" horiz-adv-x="867" 
d="M425 816q-163 0 -252 82.5t-89 239.5q0 84 27 146.5t74.5 103.5t112 61.5t140.5 20.5q121 0 198.5 -41.5t112 -113t34.5 -165.5q0 -107 -43 -182.5t-124 -113.5t-191 -38zM308 1153q0 -124 30.5 -188t97.5 -64q65 0 94 56.5t29 174.5q0 127 -31.5 190t-94.5 63
q-67 0 -96 -55.5t-29 -176.5z" />
    <glyph glyph-name="p.ordn" horiz-adv-x="907" 
d="M354 732q0 -42 5.5 -58t20.5 -26t50 -17v-61h-360v61q35 9 48 20t17.5 29t4.5 52v537q0 54 -2.5 70.5t-10 27t-23 17t-42.5 11.5v62l200 8h90l-12 -89h10q46 38 76.5 55t65.5 28t74 11q121 0 187.5 -83.5t66.5 -239.5q0 -90 -26 -153t-71 -102.5t-105 -57.5t-129 -18
q-41 0 -73.5 5.5t-61.5 12.5v-102zM354 1035q0 -68 29 -101t86 -33q64 0 95.5 57t31.5 165q0 119 -29.5 174.5t-90.5 55.5q-29 0 -57 -11.5t-46.5 -35.5t-18.5 -54v-217z" />
    <glyph glyph-name="q.ordn" horiz-adv-x="898" 
d="M553 901h-6q-57 -45 -106.5 -65t-98.5 -20q-123 0 -189 84t-66 242q0 86 27 148t73.5 102t108.5 59t132 19q46 0 89.5 -8.5t101.5 -28.5l53 37l95 -13v-725q0 -37 5.5 -55t18.5 -28t46 -18v-61h-360v61q35 7 49.5 17t20.5 26t6 58v169zM553 1247q0 69 -27 103.5t-83 34.5
q-64 0 -98 -56t-34 -166q0 -117 29 -173.5t89 -56.5q29 0 57 11t47.5 35.5t19.5 58.5v209z" />
    <glyph glyph-name="r.ordn" horiz-adv-x="713" 
d="M350 1372h8q51 51 105 74.5t114 23.5q46 0 96 -9v-187h-137q-9 34 -26 53t-49 19q-19 0 -38.5 -9t-34 -24.5t-20 -34.5t-5.5 -60v-204q0 -54 5 -74t19.5 -32.5t49.5 -17.5v-61h-357v61q33 7 46.5 19t18 31.5t4.5 72.5v257q0 57 -4 76t-17.5 30.5t-56.5 18.5v62l198 8h95z
" />
    <glyph glyph-name="s.ordn" horiz-adv-x="709" 
d="M180 1011q16 -55 50 -82.5t97 -27.5q100 0 100 75q0 24 -11 41t-40 33t-93 40q-67 25 -107 49.5t-62.5 58.5t-22.5 81q0 63 42 107t109.5 64t149.5 20q48 0 99.5 -4t132.5 -18v-160h-101q-19 49 -47 73t-83 24q-48 0 -71.5 -17.5t-23.5 -44.5q0 -24 11.5 -39.5t40 -31.5
t85.5 -37q109 -42 153 -87t44 -109q0 -100 -76 -151.5t-217 -51.5q-121 0 -262 32v163h103z" />
    <glyph glyph-name="t.ordn" horiz-adv-x="575" 
d="M572 905q-67 -50 -118 -69.5t-108 -19.5q-109 0 -161 52.5t-52 153.5v338h-87v63q39 5 59 15.5t32 28t20 50.5t12 99h178v-159h199v-97h-199v-273q0 -69 6.5 -96.5t21.5 -41.5t42 -14q19 0 34 3.5t32 12.5t38 25z" />
    <glyph glyph-name="u.ordn" horiz-adv-x="907" 
d="M65 1457h284v-357q0 -62 4.5 -92.5t14.5 -44t24 -22t44 -8.5q25 0 52 12t46 34.5t19 48.5v243q0 53 -4 73t-16.5 31.5t-49.5 20.5v61h284v-441q0 -56 4.5 -76t18 -31.5t55.5 -18.5v-61l-199 -8h-91l12 89h-10q-63 -52 -112.5 -73t-100.5 -21q-108 0 -158.5 52t-50.5 172
v231q0 53 -4 73t-17.5 32t-48.5 20v61z" />
    <glyph glyph-name="v.ordn" horiz-adv-x="826" 
d="M397 1457v-61q-36 -6 -50 -15t-14 -24q0 -13 5 -30t14 -41l99 -260l110 228q16 33 21.5 52.5t5.5 36.5q0 20 -16 34.5t-48 18.5v61h284v-62q-30 -8 -45 -20t-31.5 -36t-48.5 -86l-226 -432h-137l-191 475q-3 8 -14 32t-22.5 37t-24.5 20.5t-32 10.5v61h361z" />
    <glyph glyph-name="w.ordn" horiz-adv-x="1209" 
d="M732 820l-131 392l-153 -392h-147l-177 476q-17 45 -27.5 62t-23 25.5t-34.5 12.5v61h354v-61q-37 -6 -51.5 -16.5t-14.5 -25.5q0 -10 2.5 -20.5t15.5 -47.5l85 -245l161 416h136l137 -416l89 212q16 37 20.5 56.5t4.5 33.5q0 19 -15.5 33.5t-48.5 19.5v61h275v-62
q-37 -10 -59.5 -39t-56.5 -103l-196 -433h-145z" />
    <glyph glyph-name="x.ordn" horiz-adv-x="804" 
d="M496 1172l163 -198q35 -43 62.5 -60.5t54.5 -23.5v-61h-352v61q22 1 32.5 7t10.5 14q0 11 -4 19.5t-17 24.5l-80 99l-78 -83q-21 -22 -27.5 -32.5t-6.5 -21.5q0 -10 12.5 -17t39.5 -10v-61h-281v61q34 6 65 27.5t71 60.5l148 145l-160 195q-22 27 -41 44.5t-33.5 24.5
t-33.5 9v61h350v-60q-25 -3 -34.5 -10t-9.5 -14q0 -10 5 -19.5t18 -26.5l69 -86l72 77q13 14 20.5 26t7.5 23q0 12 -14 20t-39 9v61h278v-60q-34 -8 -60.5 -26t-75.5 -69z" />
    <glyph glyph-name="y.ordn" horiz-adv-x="826" 
d="M450 808q-68 -130 -134.5 -188t-158.5 -58q-57 0 -103 13v158h87q9 -28 21.5 -38.5t36.5 -10.5q25 0 44.5 11t44 42t59.5 92h-29l-189 467q-23 57 -42.5 76t-50.5 24v61h361v-61q-36 -6 -50 -15t-14 -24q0 -13 5 -30t14 -41l99 -258l110 226q15 31 21 51t6 38
q0 20 -16 34.5t-48 18.5v61h284v-62q-28 -8 -44 -20t-34.5 -39.5t-46.5 -82.5z" />
    <glyph glyph-name="z.ordn" horiz-adv-x="738" 
d="M326 915h129q49 0 76 31.5t46 98.5h95v-216h-606v56l347 486h-122q-35 0 -55.5 -11.5t-35.5 -35t-35 -72.5h-94v205h601v-55z" />
    <glyph glyph-name="glyph415" horiz-adv-x="1879" 
d="M84 66q47 14 65.5 31t26.5 47.5t8 106.5v616h-122v69q47 7 65.5 15.5t30.5 23t19 37.5t10 59q16 180 133.5 272.5t332.5 92.5q49 0 111 -9v-7l229 12h123v-573l1 -1q55 53 99.5 83t97.5 48.5t113 18.5q178 0 267 -125.5t89 -375.5q0 -173 -52.5 -289.5t-156.5 -175
t-256 -58.5q-158 0 -289 57l-74 -57l-128 18v1085q0 108 -4 151t-17 65.5t-42 34.5v-104h-112q-12 91 -77 91q-40 0 -62.5 -30.5t-31 -86t-8.5 -140.5v-76h193v-125h-193v-616q0 -75 8 -106t28.5 -49t72.5 -30v-66h-498v66zM1116 328q0 -123 42.5 -181.5t131.5 -58.5
q92 0 140.5 96.5t48.5 275.5q0 197 -43 294t-134 97q-46 0 -88.5 -21t-70 -65t-27.5 -104v-333z" />
    <glyph glyph-name="uniFB00" unicode="&#xfb00;" horiz-adv-x="1336" 
d="M752 66q47 14 65.5 31t26.5 47.5t8 106.5v616h-379v-616q0 -75 8 -106t28.5 -49t72.5 -30v-66h-498v66q47 14 65.5 31t26.5 47.5t8 106.5v616h-122v69q47 7 65.5 15.5t30.5 23t19 37.5t10 59q16 180 133.5 272.5t332.5 92.5q86 0 153 -14v-204h-136q-17 55 -37.5 81
t-53.5 26q-43 0 -66 -28.5t-31.5 -81t-8.5 -147.5v-76h364q14 27 18 79q16 180 133.5 272.5t332.5 92.5q86 0 153 -14v-204h-136q-17 55 -37.5 81t-53.5 26q-43 0 -66 -28.5t-31.5 -81t-8.5 -147.5v-76h193v-125h-193v-616q0 -75 8 -106t28.5 -49t72.5 -30v-66h-498v66z" />
    <glyph glyph-name="glyph418" horiz-adv-x="1890" 
d="M84 66q47 14 65.5 31t26.5 47.5t8 106.5v616h-122v69q47 7 65.5 15.5t30.5 23t19 37.5t10 59q16 180 133.5 272.5t332.5 92.5q49 0 111 -9v-7l239 12h125v-571l4 -1q91 81 162.5 114.5t146.5 33.5q110 0 170 -40.5t87.5 -116.5t27.5 -197v-365q0 -44 1.5 -82.5t7.5 -61.5
t16.5 -37.5t29.5 -24.5t46 -17v-66h-485v66q47 11 64.5 32t24 58t6.5 132v261q0 100 -6.5 155.5t-22 86t-40 45.5t-64.5 15q-38 0 -79.5 -23.5t-69 -64t-27.5 -86.5v-388q0 -56 1.5 -86.5t4.5 -47t8.5 -29.5t14.5 -24t26 -20t45 -16v-66h-490v66q30 7 47 16.5t26.5 22
t16.5 32t9 54t2 98.5v780q0 94 -2 138t-9 71t-21 41t-43 24v-109h-112q-12 91 -77 91q-40 0 -62.5 -30.5t-31 -86t-8.5 -140.5v-76h193v-125h-193v-616q0 -75 8 -106t28.5 -49t72.5 -30v-66h-498v66z" />
    <glyph glyph-name="uniFB01" unicode="&#xfb01;" horiz-adv-x="1312" 
d="M84 66q47 14 65.5 31t26.5 47.5t8 106.5v616h-122v69q47 7 65.5 15.5t30.5 23t19 37.5t10 59q16 180 133.5 272.5t332.5 92.5q49 0 111 -9v-193h-112q-12 91 -77 91q-40 0 -62.5 -30.5t-31 -86t-8.5 -140.5v-76h193v-125h-193v-616q0 -75 8 -106t28.5 -49t72.5 -30v-66
h-498v66zM1133 1391v-245h-274v245h274zM753 66q49 13 67.5 34t25 57t6.5 131v465q0 49 -4.5 79t-17 48t-34 27.5t-55.5 16.5v68l275 8h125v-711q0 -56 1.5 -86.5t4.5 -47t8.5 -29.5t14.5 -24t26 -20t45 -16v-66h-488v66z" />
    <glyph glyph-name="glyph422" horiz-adv-x="1287" 
d="M84 66q47 14 65.5 31t26.5 47.5t8 106.5v616h-122v69q47 7 65.5 15.5t30.5 23t19 37.5t10 59q16 180 133.5 272.5t332.5 92.5q49 0 111 -9v-193h-112q-12 91 -77 91q-40 0 -62.5 -30.5t-31 -86t-8.5 -140.5v-76h193v-125h-193v-616q0 -75 8 -106t28.5 -49t72.5 -30v-66
h-498v66zM1120 1391v-245h-274v245h274zM1128 79q0 -118 -20.5 -199.5t-69 -143.5t-135.5 -108.5t-173 -70.5l-48 117q67 27 98 55t45 71.5t14 119.5v833q0 49 -4.5 79t-17 48t-34 27.5t-55.5 16.5v68l275 8h125v-921z" />
    <glyph glyph-name="glyph424" horiz-adv-x="1880" 
d="M84 66q47 14 65.5 31t26.5 47.5t8 106.5v616h-122v69q47 7 65.5 15.5t30.5 23t19 37.5t10 59q16 180 133.5 272.5t332.5 92.5q49 0 111 -9v-7l240 12h124v-843h36q31 0 50 6q22 7 45 25q32 23 79 67q35 33 57 63q19 27 28 52q8 21 8 45q0 69 -87 81v64h500v-64
q-39 -6 -87 -36t-151 -126l-145 -135l258 -382q57 -85 84 -117t47 -45.5t50 -20.5v-66h-499v66q24 4 38.5 16t14.5 36q0 16 -7 36t-21 44t-56 87l-77 116q-26 39 -42 56.5t-31.5 26.5t-43.5 9h-48v-204q0 -95 6 -131t24.5 -57.5t69.5 -34.5v-66h-490v66q30 7 47 16.5
t26.5 22t16.5 32t9 54t2 98.5v780q0 94 -2 138t-9 71t-21 41t-43 24v-109h-112q-12 91 -77 91q-40 0 -62.5 -30.5t-31 -86t-8.5 -140.5v-76h193v-125h-193v-616q0 -75 8 -106t28.5 -49t72.5 -30v-66h-498v66z" />
    <glyph glyph-name="uniFB02" unicode="&#xfb02;" horiz-adv-x="1299" 
d="M1128 289q0 -95 6 -131t24.5 -57.5t69.5 -34.5v-66h-490v66q30 7 47 16.5t26.5 22t16.5 32t9 54t2 98.5v780q0 120 -4 166.5t-18.5 70.5t-47.5 35v-107h-123q-13 91 -73 91q-52 0 -76 -58t-24 -199v-76h193v-125h-193v-616q0 -75 8 -106t28.5 -49t72.5 -30v-66h-498v66
q47 14 65.5 31t26.5 47.5t8 106.5v616h-122v69q47 7 65.5 15.5t30.5 23t19 37.5t10 59q16 180 133.5 272.5t332.5 92.5q52 0 116 -10v-6l234 12h125v-1143z" />
    </font>
</defs>
</svg>
